ML
     
  Уважаемый Гость!
Вы можете поддержать проект и зарегистрироваться у наших партнеров - онлайн-стратегия MyLands. При регистрации в игре Вы получите код, который сможете активировать после регистрации на pirat.ca и получить 1000 дублонов.

Ваш код:
8b752b428cf60a012c159dcae592cd1392170115
 
     

Монстры на острове 3D / Friends: Mononokeshima no Naki (Такаши Ямадзаки / Takashi Yamazaki) [2011 г., мультфильм, фэнтези, приключения, DVDRip] Dub

Ответить на тему
 
Автор
Сообщение

Пост 22-Мар-2013 13:27

[Q] 

aiden57

Гроза морей

-Монстры на острове 3D / Friends: Mononokeshima no Naki-- Производство: Япония, Канада
Режиссер: Такаши Ямадзаки / Takashi Yamazaki
Жанр: мультфильм, фэнтези, приключения
Год выпуска: 2011 г.
Продолжительность: 01:27:28
Мировая премьера: 17 декабря 2011
Российская премьера: 28 февраля 2013
Перевод: Профессиональный (полное дублирование) [Лицензия]
Роли озвучивали: Садао Абе, Шинго Катори, Сэйсиро Като, Коити Ямадера-Описание: Далеко в океане, покрытый густым туманом и похожий на привидение, спрятался Остров. По легенде, на нем живут монстры, которые охраняют растущие там чудесные ягоды и грибы. Приближаться к Острову запрещено… Однажды мальчик из племени случайно оказался на Острове и столкнулся лицом к лицу со всем таинственным, что на нем было. Поначалу монстры приняли его дружелюбно, но мальчик оказался настоящим чертенком. Монстры, устав от его выходок, решили отправить его обратно. Попадет ли он обратно домой и сохранит ли тайну Острова? Разгадка наступит в самом конце…-Сэмпл IMDB КиноПоиск
Качество видео: DVDRip
Контейнер: AVI
Видео кодек: XviD
Аудио кодек: AC3
Видео: 720x416 (1.73:1), 25 fps, XviD MPEG-4 ~1784 kbps avg, 0.24 bit/pixel
Аудио: 48 kHz, AC3 Dolby Digital, 3/2 (L,C,R,l,r) + LFE ch, ~448 kbps
Cубтитры: отсутствуют
Трейлер
General
Complete name : G:\Торренты\aiden57\Монстры На Острове\Monstry.na.ostrovah.2011.D.DVDRip.avi
Format : AVI
Format/Info : Audio Video Interleave
File size : 1.37 GiB
Duration : 1h 27mn
Overall bit rate : 2 243 Kbps
Writing application : VirtualDubMod 1.5.10.2 (build 2542/release)
Writing library : VirtualDubMod build 2542/release
Video
ID : 0
Format : MPEG-4 Visual
Format profile : Advanced [email protected]
Format settings, BVOP : 2
Format settings, QPel : No
Format settings, GMC : No warppoints
Format settings, Matrix : Default (MPEG)
Muxing mode : Packed bitstream
Codec ID : XVID
Codec ID/Hint : XviD
Duration : 1h 27mn
Bit rate : 1 785 Kbps
Width : 720 pixels
Height : 416 pixels
Display aspect ratio : 1.731
Frame rate : 25.000 fps
Color space : YUV
Chroma subsampling : 4:2:0
Bit depth : 8 bits
Scan type : Progressive
Compression mode : Lossy
Bits/(Pixel*Frame) : 0.238
Stream size : 1.09 GiB (80%)
Writing library : XviD 1.2.1 (UTC 2008-12-04)
Audio
ID : 1
Format : AC-3
Format/Info : Audio Coding 3
Mode extension : CM (complete main)
Format settings, Endianness : Big
Codec ID : 2000
Duration : 1h 27mn
Bit rate mode : Constant
Bit rate : 448 Kbps
Channel(s) : 6 channels
Channel positions : Front: L C R, Side: L R, LFE
Sampling rate : 48.0 KHz
Bit depth : 16 bits
Compression mode : Lossy
Stream size : 280 MiB (20%)
Alignment : Split accross interleaves
Interleave, duration : 40 ms (1.00 video frame)
Interleave, preload duration : 500 ms
Download / Скачать

Хотите скачать бесплатно? Зарегистрируйтесь на сайте (ссылка на регистрацию). Pirat.ca - самый быстрый торрент трекер в рунете!

Как скачивать  ·   Что такое торрент  ·   Рейтинг и ограничения

lexmar

Корсар

Пост 22-Мар-2013 15:34 (спустя 2 часа 7 минут)

[Q] 

[Профиль]  [ЛС] 

Пост 22-Мар-2013 15:46 (спустя 11 минут)

Топик был перенесен из форума Мультфильмы (Трюм) в форум Новинки (HD|DVD|BD|TV|SAT|PDTV| - Rips)

erchine
 

igorexa1111

Корсар

Пост 22-Мар-2013 16:13 (спустя 38 минут)

[Q] 

[Профиль]  [ЛС] 

Antin

Морской Волк

Пост 22-Мар-2013 17:16 (спустя 1 час 3 минуты)

[Q] 

[Профиль]  [ЛС] 

Александр К.

Шкипер

Пост 22-Мар-2013 18:34 (спустя 1 час 18 минут)

[Q] 

Что-то по скринам не заметно, что он 3D? Ничего не напутано??
[Профиль]  [ЛС] 

Nikitosina228

Морской Волк

Пост 22-Мар-2013 18:41 (спустя 6 минут)

[Q] 

[Профиль]  [ЛС] 

aiden57 ®

Гроза морей

3259

Пост 22-Мар-2013 19:24 (спустя 43 минуты)

[Q] 

343351Что-то по скринам не заметно, что он 3D? Ничего не напутано??
Русское название брал с кинопоиска. Будь он в 3D, то и находился бы в соответствующем разделе.

_________________

Мои раздачи
[Профиль]  [ЛС] 

sergey-309

Морской Волк

Пост 22-Мар-2013 19:49 (спустя 25 минут)

[Q] 

[Профиль]  [ЛС] 

yv6wB9G19oy1

Морской Волк

Пост 23-Мар-2013 08:46 (спустя 12 часов)

[Q] 


_________________
[Профиль]  [ЛС] 

jesus-w

Корсар

Пост 23-Мар-2013 10:07 (спустя 1 час 20 минут)

[Q] 

[Профиль]  [ЛС] 

peugeot

Морской Волк

Пост 23-Мар-2013 11:31 (спустя 1 час 24 минуты)

[Q] 

и всетаки как мульт?????????
[Профиль]  [ЛС] 

youfate

Корсар

Пост 23-Мар-2013 14:05 (спустя 2 часа 34 минуты)

[Q] 

Спасибо! Ребенку понравилось.
[Профиль]  [ЛС] 

assassin5791

Лоцман

Пост 23-Мар-2013 17:44 (спустя 3 часа)

[Q] 

[Профиль]  [ЛС] 

Bearmask

Штурман

Пост 23-Мар-2013 18:24 (спустя 39 минут)

[Q] 

неплохо

_________________
[Профиль]  [ЛС] 

Aleks44

Гроза морей

Пост 23-Мар-2013 20:02 (спустя 1 час 38 минут)

[Q] 

Есть схожесть с первыми сериями Маша и медведь, нормальный средний мульт с эффектами замедленного действия
[Профиль]  [ЛС] 

anonymoys

Гроза морей

901

Пост 23-Мар-2013 20:39 (спустя 36 минут)

[Q] 

[Профиль]  [ЛС] 

sleandr

Шкипер

Пост 23-Мар-2013 23:29 (спустя 2 часа 50 минут)

[Q] 

Хороший мультфильм.
[Профиль]  [ЛС] 

watsonix

Флибустьер

Пост 24-Мар-2013 01:14 (спустя 1 час 44 минуты)

[Q] 

[Профиль]  [ЛС] 

dimonpa

Гроза морей

Пост 24-Мар-2013 11:17 (спустя 10 часов)

[Q] 

[Профиль]  [ЛС] 

xxmoroz

Морской Волк

Пост 25-Мар-2013 09:08 (спустя 21 час)

[Q] 

Мультик хороший, дочкам понравился.
[Профиль]  [ЛС] 

SaNyABA89

Морской Волк

Пост 25-Мар-2013 11:06 (спустя 1 час 57 минут)

[Q] 

спасибо!!!

_________________
Талантам нужно помогать, бездарности пробьются сами!
[Профиль]  [ЛС] 

svmaxus

Шкипер

Пост 25-Мар-2013 14:01 (спустя 2 часа 54 минуты)

[Q] 

[Профиль]  [ЛС] 

xxmoroz

Морской Волк

Пост 25-Мар-2013 19:20 (спустя 5 часов)

[Q] 

а есть еще подобное, для детей? А то как-то попадаются такие, что просто нельзя показывать. Автору
[Профиль]  [ЛС] 

ZZEMM

Юнга

Пост 05-Апр-2013 17:12 (спустя 10 дней)

[Q] 

Ребенок в восторге!

_________________
[Профиль]  [ЛС] 

Псих

87

Пост 07-Апр-2013 01:22 (спустя 1 день 8 часов)

[Q] 


_________________
Не забываем говорить
[Профиль]  [ЛС] 

YSPAN

Морской Волк

Пост 08-Апр-2013 10:11 (спустя 1 день 8 часов)

[Q] 

[Профиль]  [ЛС] 
Показать сообщения:    
Ответить на тему

Текущее время: Сегодня 06:19

Часовой пояс: GMT + 4



Вы не можете начинать темы
Вы не можете отвечать на сообщения
Вы не можете редактировать свои сообщения
Вы не можете удалять свои сообщения
Вы не можете голосовать в опросах
Вы не можете прикреплять файлы к сообщениям
Вы не можете скачивать файлы

▼ Вниз