ML
     
  Уважаемый Гость!
Вы можете поддержать проект и зарегистрироваться у наших партнеров - онлайн-стратегия MyLands. При регистрации в игре Вы получите код, который сможете активировать после регистрации на pirat.ca и получить 1000 дублонов.

Ваш код:
cc3be08b7507661c03e0a2f582d0da3a659ea55a
 
     

Отважный маленький тостер: Антология / The Brave little toaster: Anthology (Джерри Риис, Роберт Рамирез / Jerry Rees, Robert Ramirez) [1987-1998 г., комедия, DVDRip]

Ответить на тему
 
Автор
Сообщение

Пост 21-Дек-2011 13:13

[Q] 

Андря

Отважный маленький тостер / The Brave little toaster
Год выпуска: 1987
Страна: США (Walt Disney Pictures)
Жанр: комедия
Продолжительность: 86 минут
Перевод: Профессиональный (полное дублирование)
Режиссер: Джерри Риис / Jerry Rees
В ролях: Джон Ловиц, Тимоти Стакс, Тимоти Дей, Турл Равенскрофт, Дианна Оливер
Описание: Уморительная компания говорящих бытовых приборов: Тостер, Радио, Лампа, пылесос Керби и одеяло Блэнки, живущая в маленьком домике в горах, отправляется в удивительное путешествие на поиски своего любимого хозяина – маленького мальчика. Возглавляет экспедицию отважный Тостер. Пылесос Керби использует свою мощь для доставки верных товарищей в большой город, где теперь живет их юный хозяин. Радио предупреждает их о подстерегающих на пути опасностях и развлекает анекдотами, музыкой, новостями спорта и погоды. Лампа, конечно же, освещает им путь в темноте, и даже маленькое электрическое одеяло Блэнки согревает их холодной ночью…
Качество: DVDRip
Формат: AVI
Видео кодек: DivX
Аудио кодек: MP3
Видео: 448 х 336 (4:3) 25,000 Гц
Аудио: MPEG Layer3 48000 Гц, Стерео, 128 Кбит/сек


Отважный маленький тостер отправляется на Марс / The Brave Little Toaster Goes to Mars
Год выпуска: 1998
Страна: США (Walt Disney Pictures)
Жанр: комедия
Продолжительность: 76 минут
Перевод: Профессиональный (полное дублирование)
Режиссер: Роберт Рамирез / Robert Ramirez
В ролях: Эрик Ллойд, Тимоти Стакс, Роджер Кэблер, Турл Равенскрофт, Дианна Оливер
Описание: Юный хозяин Роб закончил колледж, стал взрослым, женился, и вскоре на свет появился Маленький Хозяин Робби. Тостер, Лампа, Радио, пылесос Керби и электрическое одеяло Блэнки окружили малыша любовью и заботой. Но приборы-чужаки во главе с огромным Холодильником похитили Робби и таинственным образом переправили Робби на Марс. Чтобы вызволить маленького Хозяина и доставить его домой, отважные друзья-электроприборы вместе с крысой Рэтсо и новыми товарищами: дребезжащим вентилятором Фэнни, заносчивой Микроволновкой, Мешком с попкорном и Калькулятором отправляются в захватывающее межпланетное путешествие...
Качество: DVDRip
Формат: AVI
Видео кодек: DivX
Аудио кодек: MP3
Видео: 512 x 384 (4:3) 25,000 Гц
Аудио: MPEG Layer3 48000 Гц, Стерео, 128 Кбит/сек



Отважный маленький тостер идёт в школу / The Brave Little Toaster to the Rescue
Год выпуска: 1997
Страна: США (Walt Disney Pictures)
Жанр: комедия
Продолжительность: 71 минута
Перевод: Профессиональный (полное дублирование)
Режиссер: Роберт Рамирез / Robert Ramirez
В ролях: Брайан Дойл-Мюррей, Тимоти Стакс, Роджер Кэблер, Турл Равенскрофт, Дианна Оливер
Описание: Юный Хозяин Роб вырос, как это всегда происходит со всеми маленькими мальчиками. Он отправился учиться и, конечно же, взял с собой свои любимые вещи – замечательную компанию говорящих бытовых приборов. Тостер, Радио, Лампа, Пылесос Керби и Одеяло Блэнки быстро познакомились со страдающим от вирусов устаревшим компьютером Витгенштейном и его смешной Мышью. И они все вместе подружились с живущими по соседству животными – уморительной крысой Рэтсо, макакой Себастьяном и кошкой Мэйзи. А когда Тостер и его бравая компания узнали, что их новых друзей собираются отправить в ветеринарную лабораторию, чтобы ставить на них всякие опыты, отважная электрокоманда включила свои киловаты на полную мощность и устремилась на выручку.
Качество: DVDRip
Формат: AVI
Видео кодек: DivX
Аудио кодек: MP3
Видео: 512 x 384 (4:3) 25,000 Гц
Аудио: MPEG Layer3 48000 Гц, Стерео, 128 Кбит/сек



Общее
Полное имя : Toster\Маленький отважный тостер отправляется на Марс.avi
Формат : AVI
Формат/Информация : Audio Video Interleave
Размер файла : 512 Мбайт
Продолжительность : 1 ч. 15 м.
Общий поток : 943 Кбит/сек
Название фильма : GREATEST MPEG4 VIDEO COLLECTION: MP4U.RU
Тема : GREATEST MPEG4 VIDEO COLLECTION: MP4U.RU
Программа кодирования : Nandub v1.0rc2
Библиотека кодирования : Nandub build 1853/release
Примечание : GREATEST MPEG4 VIDEO COLLECTION: MP4U.RU
Видео
Идентификатор : 0
Формат : MPEG-4 Visual
Параметр BVOP формата : 1
Параметр QPel формата : Нет
Параметр GMC формата : Без точки перехода
Параметр матрицы формата : Default (H.263)
Режим смешивания : Сжатый битовый поток
Идентификатор кодека : DX50
Идентификатор кодека/Подсказка : DivX 5
Продолжительность : 1 ч. 15 м.
Битрейт : 806 Кбит/сек
Ширина : 512 пикселей
Высота : 384 пикселя
Соотношение сторон : 4:3
Частота кадров : 25,000 кадров/сек
Цветовое пространство : YUV
Субдискретизация насыщенности : 4:2:0
Битовая глубина : 8 бит
Тип развёртки : Прогрессивная
Метод сжатия : С потерями
Бит/(Пиксели*Кадры) : 0.164
Размер потока : 437 Мбайт (85%)
Библиотека кодирования : DivX 5.0.5 Beta(Tahanea) (UTC 2003-01)
Аудио
Идентификатор : 1
Формат : MPEG Audio
Версия формата : Version 1
Профиль формата : Layer 3
Идентификатор кодека : 55
Идентификатор кодека/Подсказка : MP3
Продолжительность : 1 ч. 15 м.
Вид битрейта : Постоянный
Битрейт : 128 Кбит/сек
Каналы : 2 канала
Частота : 48,0 КГц
Метод сжатия : С потерями
Размер потока : 69,5 Мбайт (14%)
Выравнивание : Разделение по промежуткам
Продолжительность промежутка : 40 мс. (1,00 видеокадр)
Время предзагрузки промежутка : 500 мс.
Общее
Полное имя : Toster\Отважный маленький тостер.avi
Формат : AVI
Формат/Информация : Audio Video Interleave
Размер файла : 683 Мбайт
Продолжительность : 1 ч. 26 м.
Общий поток : 1100 Кбит/сек
Название фильма : GREATEST MPEG4 VIDEO COLLECTION: MP4U.RU
Тема : GREATEST MPEG4 VIDEO COLLECTION: MP4U.RU
Программа кодирования : Nandub v1.0rc2
Библиотека кодирования : Nandub build 1853/release
Примечание : GREATEST MPEG4 VIDEO COLLECTION: MP4U.RU
Видео
Идентификатор : 0
Формат : MPEG-4 Visual
Идентификатор кодека : DIV3
Идентификатор кодека/Подсказка : DivX 3 Low
Продолжительность : 1 ч. 26 м.
Битрейт : 962 Кбит/сек
Ширина : 448 пикселей
Высота : 336 пикселей
Соотношение сторон : 4:3
Частота кадров : 25,000 кадров/сек
Цветовое пространство : YUV
Субдискретизация насыщенности : 4:2:0
Битовая глубина : 8 бит
Метод сжатия : С потерями
Бит/(Пиксели*Кадры) : 0.256
Размер потока : 598 Мбайт (87%)
Аудио
Идентификатор : 1
Формат : MPEG Audio
Версия формата : Version 1
Профиль формата : Layer 3
Идентификатор кодека : 55
Идентификатор кодека/Подсказка : MP3
Продолжительность : 1 ч. 26 м.
Вид битрейта : Постоянный
Битрейт : 128 Кбит/сек
Каналы : 2 канала
Частота : 48,0 КГц
Метод сжатия : С потерями
Размер потока : 79,5 Мбайт (12%)
Выравнивание : Разделение по промежуткам
Продолжительность промежутка : 40 мс. (1,00 видеокадр)
Время предзагрузки промежутка : 500 мс.
Общее
Полное имя : Toster\отважный маленький тостер отправляется в школу.avi
Формат : AVI
Формат/Информация : Audio Video Interleave
Размер файла : 643 Мбайт
Продолжительность : 1 ч. 11 м.
Общий поток : 1261 Кбит/сек
Видео
Идентификатор : 0
Формат : MPEG-4 Visual
Параметр BVOP формата : 1
Параметр QPel формата : Нет
Параметр GMC формата : Без точки перехода
Параметр матрицы формата : Default (H.263)
Режим смешивания : Сжатый битовый поток
Идентификатор кодека : DX50
Идентификатор кодека/Подсказка : DivX 5
Продолжительность : 1 ч. 11 м.
Битрейт : 1128 Кбит/сек
Ширина : 512 пикселей
Высота : 384 пикселя
Соотношение сторон : 4:3
Частота кадров : 25,000 кадров/сек
Цветовое пространство : YUV
Субдискретизация насыщенности : 4:2:0
Битовая глубина : 8 бит
Тип развёртки : Прогрессивная
Метод сжатия : С потерями
Бит/(Пиксели*Кадры) : 0.229
Размер потока : 575 Мбайт (89%)
Библиотека кодирования : DivX 5.0.5 Beta(Tahanea) (UTC 2003-01)
Аудио
Идентификатор : 1
Формат : MPEG Audio
Версия формата : Version 1
Профиль формата : Layer 3
Идентификатор кодека : 55
Идентификатор кодека/Подсказка : MP3
Продолжительность : 1 ч. 11 м.
Вид битрейта : Постоянный
Битрейт : 128 Кбит/сек
Каналы : 2 канала
Частота : 48,0 КГц
Метод сжатия : С потерями
Размер потока : 65,2 Мбайт (10%)
Выравнивание : Разделение по промежуткам
Продолжительность промежутка : 1000 мс. (25,00 видеокадров)
Download / Скачать

Хотите скачать бесплатно? Зарегистрируйтесь на сайте (ссылка на регистрацию). Pirat.ca - самый быстрый торрент трекер в рунете!

Как скачивать  ·   Что такое торрент  ·   Рейтинг и ограничения

Пост 21-Дек-2011 18:32 (спустя 5 часов)

Топик был перенесен из форума Мультипликация в форум Зарубежные полнометражные мультфильмы

zyyx
 
Показать сообщения:    
Ответить на тему

Текущее время: Сегодня 05:04

Часовой пояс: GMT + 4



Вы не можете начинать темы
Вы не можете отвечать на сообщения
Вы не можете редактировать свои сообщения
Вы не можете удалять свои сообщения
Вы не можете голосовать в опросах
Вы не можете прикреплять файлы к сообщениям
Вы не можете скачивать файлы

▼ Вниз