ML
     
  Уважаемый Гость!
Вы можете поддержать проект и зарегистрироваться у наших партнеров - онлайн-стратегия MyLands. При регистрации в игре Вы получите код, который сможете активировать после регистрации на pirat.ca и получить 1000 дублонов.

Ваш код:
cc3be08b7507661c03e0a2f582d0da3a659ea55a
 
     

Чудо-Женщина / Wonder Woman (Лоурен Монтгомери /Lauren Montgomery) [2009 г., Анимационный, Фантастика, Фэнтези, HDRip]

Ответить на тему
 
Автор
Сообщение

Пост 21-Дек-2011 13:37

[Q] 

Андря

Чудо-Женщина / Wonder Woman
Год выпуска: 2009
Страна: США DC Comics
Жанр: Анимационный, Фантастика, Фэнтези
Продолжительность: 01:13:39
Перевод: Профессиональный (многоголосый, закадровый)
Режиссер: Лоурен Монтгомери / Lauren Montgomery
В ролях: Кери Рассел.Натан Филлион.Альфред Молина.Розарио Доусон.Марж Хелгенбергеp.Оливер Плэтт,Вирджиния Мэдсен,Скай, Аренс,Джон Ди Маджио,Джулианна Гроссман
Описание: Арес, бог войны, был повергнут и заключен в тюрьму на затерянном острове амазонок… Военный истребитель терпит крушение на неизведанном острове. Пилот чудом выживает, но сразу же попадает в плен к недружелюбным амазонкам. Рассудительная королева принимает решение отправить мужчину во внешний мир, и на это опасное задание просится ее дочь, Диана, в силе и ловкости которой нет равных. К этому времени озлобленный Арес вырывается из темницы…
7.1/10 1,062 votes 8.425 40
Качество: HDRip
Формат: AVI
Видео кодек: XviD
Аудио кодек: AC3
Видео: XviD build 47, 720x400 (1.80:1), 23.976 fps, 1923 kbps avg, 0.28 bit/pixel
Аудио1: AC3 Dolby Digital, 3/2 (L,C,R,l,r) + LFE ch, 448.00 kbps avg
Аудио2: AC3 Dolby Digital, 3/2 (L,C,R,l,r) + LFE ch, 448.00 kbps avg
Общее
Полное имя : Chudo.Zhenshina.2009.DUAL.BDRip.XviD.AC3.-HQ-ViDEO.avi
Формат : AVI
Формат/Информация : Audio Video Interleave
Размер файла : 1,46 Гбайт
Продолжительность : 1 ч. 13 м.
Общий поток : 2834 Кбит/сек
Название фильма : Чудо-Женщина / Wonder Woman (2009)
Режиссёр : vladaudi (BDRip 720)
Программа кодирования : VirtualDubMod 1.5.10.2 (build 2540/release)
Правообладатель : HQ-ViDEO (www.hq-video.ru)
Примечание : 02.06.2009
Видео
Идентификатор : 0
Формат : MPEG-4 Visual
Профиль формата : Advanced [email protected]
Параметр BVOP формата : 1
Параметр QPel формата : Нет
Параметр GMC формата : Без точки перехода
Параметр матрицы формата : Default (MPEG)
Идентификатор кодека : XVID
Идентификатор кодека/Подсказка : XviD
Продолжительность : 1 ч. 13 м.
Битрейт : 1924 Кбит/сек
Ширина : 720 пикселей
Высота : 400 пикселей
Соотношение сторон : 16:9
Частота кадров : 23,976 кадра/сек
Цветовое пространство : YUV
Субдискретизация насыщенности : 4:2:0
Битовая глубина : 8 бит
Тип развёртки : Прогрессивная
Метод сжатия : С потерями
Бит/(Пиксели*Кадры) : 0.279
Размер потока : 1014 Мбайт (68%)
Библиотека кодирования : XviD 1.2.0.dev47 (UTC 2006-11-01)
Аудио #1
Идентификатор : 1
Формат : AC-3
Формат/Информация : Audio Coding 3
Расширение режима : CM (complete main)
Идентификатор кодека : 2000
Продолжительность : 1 ч. 13 м.
Вид битрейта : Постоянный
Битрейт : 448 Кбит/сек
Каналы : 6 каналов
Расположение каналов : Front: L C R, Side: L R, LFE
Частота : 48,0 КГц
Битовая глубина : 16 бит
Метод сжатия : С потерями
Задержка видео : 3 с. 0 мс.
Размер потока : 236 Мбайт (16%)
Выравнивание : Разделение по промежуткам
Продолжительность промежутка : 42 мс. (1,00 видеокадр)
Время предзагрузки промежутка : 500 мс.
Аудио #2
Идентификатор : 2
Формат : AC-3
Формат/Информация : Audio Coding 3
Расширение режима : CM (complete main)
Идентификатор кодека : 2000
Продолжительность : 1 ч. 13 м.
Вид битрейта : Постоянный
Битрейт : 448 Кбит/сек
Каналы : 6 каналов
Расположение каналов : Front: L C R, Side: L R, LFE
Частота : 48,0 КГц
Битовая глубина : 16 бит
Метод сжатия : С потерями
Размер потока : 236 Мбайт (16%)
Выравнивание : Разделение по промежуткам
Продолжительность промежутка : 42 мс. (1,00 видеокадр)
Время предзагрузки промежутка : 500 мс.








Download / Скачать

Хотите скачать бесплатно? Зарегистрируйтесь на сайте (ссылка на регистрацию). Pirat.ca - самый быстрый торрент трекер в рунете!

Как скачивать  ·   Что такое торрент  ·   Рейтинг и ограничения

Пост 21-Дек-2011 18:32 (спустя 4 часа)

Топик был перенесен из форума Мультипликация в форум Зарубежные полнометражные мультфильмы

zyyx
 

got70

Легенда

752

Пост 18-Янв-2012 21:03 (спустя 28 дней)

[Q] 

Чудо-Женщина-это вопрос.

_________________
Добро непременно победит зло!Непременно...Затем поставит на колени,и зверски УБЬЁТ!
[Профиль]  [ЛС] 

Wankin

Морской Волк

Пост 20-Янв-2012 01:20 (спустя 1 день 4 часа)

[Q] 

А кто-нибудь еще из героев присутствует, кроме естественно чудо женщины?
[Профиль]  [ЛС] 

erchine

44808

Пост 19-Июл-2012 00:47 (спустя 5 месяцев 29 дней)

[Q] 

за чудо женщину из DC Comics-Марвел / Marvel Entertainment
[Профиль]  [ЛС] 
Показать сообщения:    
Ответить на тему

Текущее время: Сегодня 05:05

Часовой пояс: GMT + 4



Вы не можете начинать темы
Вы не можете отвечать на сообщения
Вы не можете редактировать свои сообщения
Вы не можете удалять свои сообщения
Вы не можете голосовать в опросах
Вы не можете прикреплять файлы к сообщениям
Вы не можете скачивать файлы

▼ Вниз