ML
     
  Уважаемый Гость!
Вы можете поддержать проект и зарегистрироваться у наших партнеров - онлайн-стратегия MyLands. При регистрации в игре Вы получите код, который сможете активировать после регистрации на pirat.ca и получить 1000 дублонов.

Ваш код:
11f49771fdf057c9d51610e4a0925c3b46ddb655
 
     

Моя прекрасная Мадлен / Madeline: My Fair Madeline (Скотт Хеминг / Scott Heming) [2002 г.] (приключения, семейный) [DVDRip] (MVO)

Ответить на тему
 
Автор
Сообщение

Пост 21-Дек-2011 18:09

[Q] 

Андря

Моя прекрасная Мадлен / Madeline: My Fair Madeline
Год выпуска: 2002
Мировая премьера: 11 ноября 2002
Производство: США
Жанр: приключения, семейный
Продолжительность: 01:11:08
Перевод: профессиональный (многоголосый, закадровый)
Оригинальный аудиопоток: Английский
Режиссер: Скотт Хеминг / Scott Heming
В ролях: Вупи Голдберг
Чантал Страндт
Джим Бернс
Шеннон Чан-Кент
Кристофер Газе
МакКензи Грэй
Бриттни Ирвин
Мэрлин Лайтстоун
Анник Обонсавин
Френч Тикнер
Описание: Мадлен всегда старалась быть хорошей девочкой. Но когда она попыталась остановить грабителей, задумавших выкрасть «Мону Лизу» из Лувра, ее же и обвинили в хулиганстве и плохом поведении. В наказание Мадлен отправляют в пансион для благородных девиц в Лондоне, где ей должны «привить хорошие манеры».
И надо же — те же самые воры замышляют новое преступление. Теперь они готовятся похитить бриллианты британской короны. Но если Мадлен попытается сорвать планы злоумышленников, ей придется забыть о том, что она готовится стать «настоящей леди» и вновь рискнуть своей репутацией.
Источник/Качество: DVDRip
Формат: AVI
Видео кодек: XviD
Аудио кодек: AC3
Видео: 688x528 (1.30:1), 25 fps, XviD build 50 ~2303 kbps avg, 0.25 bit/pixel
Аудио #1: 48 kHz, AC3 Dolby Digital, 2/0 (L,R) ch, ~224.00 kbps avg
Аудио #2: 48 kHz, AC3 Dolby Digital, 2/0 (L,R) ch, ~224.00 kbps avg
General
Format : AVI
Format/Info : Audio Video Interleave
File size : 1.38 GiB
Duration : 1h 11mn
Overall bit rate : 2 767 Kbps
Writing application : VirtualDubMod 1.5.10.2 (build 2540/release)
Writing library : VirtualDubMod build 2540/release
Video #0
ID : 0
Format : MPEG-4 Visual
Format profile : [email protected]
Format settings, BVOP : Yes
Format settings, QPel : No
Format settings, GMC : No warppoints
Format settings, Matrix : Default (MPEG)
Codec ID : XVID
Codec ID/Hint : XviD
Duration : 1h 11mn
Bit rate : 2 305 Kbps
Width : 688 pixels
Height : 528 pixels
Display aspect ratio : 4:3
Frame rate : 25.000 fps
Resolution : 24 bits
Colorimetry : 4:2:0
Scan type : Progressive
Bits/(Pixel*Frame) : 0.254
Stream size : 1.15 GiB (83%)
Writing library : XviD 1.2.1 (UTC 2008-12-04)
Audio #1
ID : 1
Format : AC-3
Format/Info : Audio Coding 3
Codec ID : 2000
Duration : 1h 11mn
Bit rate mode : Constant
Bit rate : 224 Kbps
Channel(s) : 2 channels
Channel positions : L R
Sampling rate : 48.0 KHz
Stream size : 114 MiB (8%)
Alignment : Split accross interleaves
Interleave, duration : 40 ms (1.00 video frame)
Interleave, preload duration : 500 ms
Audio #2
ID : 2
Format : AC-3
Format/Info : Audio Coding 3
Codec ID : 2000
Duration : 1h 11mn
Bit rate mode : Constant
Bit rate : 224 Kbps
Channel(s) : 2 channels
Channel positions : L R
Sampling rate : 48.0 KHz
Stream size : 114 MiB (8%)
Alignment : Split accross interleaves
Interleave, duration : 40 ms (1.00 video frame)
Interleave, preload duration : 500 ms



Download / Скачать

Хотите скачать бесплатно? Зарегистрируйтесь на сайте (ссылка на регистрацию). Pirat.ca - самый быстрый торрент трекер в рунете!

Как скачивать  ·   Что такое торрент  ·   Рейтинг и ограничения

Пост 21-Дек-2011 18:32 (спустя 22 минуты)

Топик был перенесен из форума Мультипликация в форум Зарубежные полнометражные мультфильмы

zyyx
 

shalonina

Гроза морей

Пост 26-Авг-2014 17:42 (спустя 2 года 8 месяцев)

[Q] 

помогу с раздачей.........................................

_________________
[Профиль]  [ЛС] 
Показать сообщения:    
Ответить на тему

Текущее время: Сегодня 03:10

Часовой пояс: GMT + 4



Вы не можете начинать темы
Вы не можете отвечать на сообщения
Вы не можете редактировать свои сообщения
Вы не можете удалять свои сообщения
Вы не можете голосовать в опросах
Вы не можете прикреплять файлы к сообщениям
Вы не можете скачивать файлы

▼ Вниз