ML
     
  Уважаемый Гость!
Вы можете поддержать проект и зарегистрироваться у наших партнеров - онлайн-стратегия MyLands. При регистрации в игре Вы получите код, который сможете активировать после регистрации на pirat.ca и получить 1000 дублонов.

Ваш код:
193c38d0130f05c24de871678ea3ac181461757d
 
     

Месть волшебной рыбки / The Wish Fish (Ivan Oneka, Горка Васкез / Gorka Vázquez) [2012 г., мультфильм, приключения, DVDRip] MVO

Ответить на тему
 
Автор
Сообщение

Пост 28-Апр-2013 07:22

[Q] 

Resident

-Месть волшебной рыбки / The Wish Fish--«When the sea disappears» Производство: Испания, Индия / Baleuko S.L., Image Venture, Talape
Режиссер: Ivan Oneka, Горка Васкез / Gorka Vázquez
Жанр: мультфильм, приключения
Год выпуска: 2012 г.
Продолжительность: 01:11:09
Мировая премьера: 27 апреля 2012
Перевод: Профессиональный (многоголосый, закадровый)
Описание: Пухленький Опил любит играть в монстров, рассматривать комиксы, жевать конфеты и чипсы. А вот рыбу он терпеть не может. Но мама хочет, чтобы он правильно питался, и готовит ему на ужин «рыбу желаний». «Если ты ее съешь, твои желания сбудутся», - убеждает она сына, чтобы тот проглотил хоть кусочек. Опил не воспринимает маму всерьез и пережевывает ненавистное блюдо, бубня, что он хочет, чтобы на Землю прилетели инопланетяне и уничтожили всех водоплавающих. К изумлению мальчика и всех окружающих, его желание действительно сбывается: нашу планету атакует армия пришельцев с Сатурна. Оккупанты уничтожают водных обитателей и иссушают океаны. Как же остановить коварных мародеров?-
Качество видео: DVDRip
Контейнер: AVI
Видео кодек: XviD
Аудио кодек: MP3
Видео: Xvid,1404 kb/s, 720x384, 25.00 fps, 0.203 bit / pix
Аудио: 48k Hz, MP3, 128 kb/s (2 ch)
Cубтитры: отсутствуют
General
Complete name : W:\Mestj.volshebnoj.rybki.2012.P.DVDRip.avi
Format : AVI
Format/Info : Audio Video Interleave
File size : 785 MiB
Duration : 1h 11mn
Overall bit rate : 1 542 Kbps
Writing application : VirtualDubMod 1.5.10.2 (build 2540/release)
Writing library : VirtualDubMod build 2540/release
Video
ID : 0
Format : xvid
Codec ID : xvid
Duration : 1h 11mn
Bit rate : 1 404 Kbps
Width : 720 pixels
Height : 384 pixels
Display aspect ratio : 1.875
Frame rate : 25.000 fps
Bits/(Pixel*Frame) : 0.203
Stream size : 715 MiB (91%)
Audio
ID : 1
Format : MPEG Audio
Format version : Version 1
Format profile : Layer 3
Mode : Joint stereo
Codec ID : 55
Codec ID/Hint : MP3
Duration : 1h 11mn
Bit rate mode : Constant
Bit rate : 128 Kbps
Channel(s) : 2 channels
Sampling rate : 48.0 KHz
Stream size : 65.1 MiB (8%)
Alignment : Aligned on interleaves
Interleave, duration : 40 ms (1.00 video frame)
Interleave, preload duration : 504 ms
Writing library : LAME3.90.3
Download / Скачать

Хотите скачать бесплатно? Зарегистрируйтесь на сайте (ссылка на регистрацию). Pirat.ca - самый быстрый торрент трекер в рунете!

Как скачивать  ·   Что такое торрент  ·   Рейтинг и ограничения

anatolijrudnev

Корсар

Пост 28-Апр-2013 08:02 (спустя 40 минут)

[Q] 

[Профиль]  [ЛС] 

Пост 28-Апр-2013 10:12 (спустя 2 часа 9 минут)

Топик был перенесен из форума Мультфильмы (Трюм) в форум Зарубежные полнометражные мультфильмы

ara1205
 

SvetaM

Гроза морей

238

Пост 28-Апр-2013 11:18 (спустя 3 часа)

[Q] 


_________________
[Профиль]  [ЛС] 
Показать сообщения:    
Ответить на тему

Текущее время: Сегодня 18:04

Часовой пояс: GMT + 4



Вы не можете начинать темы
Вы не можете отвечать на сообщения
Вы не можете редактировать свои сообщения
Вы не можете удалять свои сообщения
Вы не можете голосовать в опросах
Вы не можете прикреплять файлы к сообщениям
Вы не можете скачивать файлы

▼ Вниз