ML
     
  Уважаемый Гость!
Вы можете поддержать проект и зарегистрироваться у наших партнеров - онлайн-стратегия MyLands. При регистрации в игре Вы получите код, который сможете активировать после регистрации на pirat.ca и получить 1000 дублонов.

Ваш код:
2932e5898d0a27592397f70b82a5834d1e70ea19
 
     

Брейвстар: Легенда / Bravestarr: The Legend (Tom Tataranowicz / Том Татаранович) [1988 г., фантастика, приключения, боевик, вестерн, DVDRip] Dub

Ответить на тему
 
Автор
Сообщение

Пост 29-Окт-2011 08:31

[Q] 

Sirota

Легенда

Брейвстар: Легенда / Bravestarr: The Legend
Год выпуска: 1988
Страна: США
Жанр: фантастика, приключения, боевик, вестерн
Продолжительность: 01:27:04
Перевод: Профессиональный (полное дублирование)
Режиссер: Tom Tataranowicz / Том Татаранович
В ролях: Сьюзэн Блу
Пэт Фрэли
Эд Гилберт
Алан Оппенхаймер
Описание: Герой мультфильма — шериф Брейвстар — коренной американец, назначен маршаллом планеты Новый Техас. Может использовать силу духов четырех животных: силу медведя, слух волка, скорость пумы и глаз сокола. На планету шериф призван по просьбе мэра: город подвергся нападению злого Тэкса-Хэкса...
Доп. информация: сценарий Боб Форвард, Стив Хэйес
продюсер Лу Шимер, Эрика Шимер
композитор Фрэнк Беккер
художник Джералд Фортон, Tenny Henson, Рик Маки,
монтаж Ludmilla Saskova
Качество: DVDRip
Формат: AVI
Видео кодек: XviD
Аудио кодек: MP3
Видео: 576x432 (1.33:1), 29.970 fps, XviD build 47 ~2048 kbps avg, 0.27 bit/pixel
Аудио: 44.100 kHz, MPEG Layer 3, 2 ch, ~192.00 kbps avg
General
Format : AVI
Format/Info : Audio Video Interleave
File size : 1.37 GiB
Duration : 1h 27mn
Overall bit rate : 2 252 Kbps
Writing application : VirtualDubModRus 1.5.10.2 (build 2540/release)
Writing library : VirtualDub build 32839/release
Video #0
ID : 0
Format : MPEG-4 Visual
Format profile : [email protected]
Format settings, BVOP : Yes
Format settings, QPel : No
Format settings, GMC : No warppoints
Format settings, Matrix : Custom
Codec ID : XVID
Codec ID/Hint : XviD
Duration : 1h 27mn
Bit rate : 2 049 Kbps
Width : 576 pixels
Height : 432 pixels
Display aspect ratio : 4:3
Frame rate : 29.970 fps
Resolution : 24 bits
Colorimetry : 4:2:0
Scan type : Progressive
Bits/(Pixel*Frame) : 0.275
Stream size : 1.25 GiB (91%)
Writing library : XviD 1.2.0.dev47 (UTC 2006-11-01)
Audio #1
ID : 1
Format : MPEG Audio
Format version : Version 1
Format profile : Layer 3
Codec ID : 55
Codec ID/Hint : MP3
Duration : 1h 27mn
Bit rate mode : Constant
Bit rate : 192 Kbps
Channel(s) : 2 channels
Sampling rate : 44.1 KHz
Resolution : 16 bits
Video delay : 400ms
Stream size : 120 MiB (9%)
Alignment : Split accross interleaves
Interleave, duration : 33 ms (1.00 video frame)
Interleave, preload duration : 500 ms
Writing library : LAME3.98.2







Download / Скачать

Хотите скачать бесплатно? Зарегистрируйтесь на сайте (ссылка на регистрацию). Pirat.ca - самый быстрый торрент трекер в рунете!

Как скачивать  ·   Что такое торрент  ·   Рейтинг и ограничения

Пост 29-Окт-2011 10:28 (спустя 1 час 56 минут)

Топик был перенесен из форума Мультипликация в форум Зарубежные полнометражные мультфильмы

bonifaci
 

Creed72

9780

Пост 31-Окт-2011 16:19 (спустя 2 дня 7 часов)

[Q] 

Раздача поддерживается Seed Aid.

_________________
Я мзду не беру. Мне за Державу обидно.(с)
[Профиль]  [ЛС] 

CHARLI2236

1096

Пост 30-Окт-2012 12:54 (спустя 11 месяцев)

[Q] 

благодарствую

_________________
[Профиль]  [ЛС] 
Показать сообщения:    
Ответить на тему

Текущее время: Сегодня 08:03

Часовой пояс: GMT + 4



Вы не можете начинать темы
Вы не можете отвечать на сообщения
Вы не можете редактировать свои сообщения
Вы не можете удалять свои сообщения
Вы не можете голосовать в опросах
Вы не можете прикреплять файлы к сообщениям
Вы не можете скачивать файлы

▼ Вниз