ML
     
  Уважаемый Гость!
Вы можете поддержать проект и зарегистрироваться у наших партнеров - онлайн-стратегия MyLands. При регистрации в игре Вы получите код, который сможете активировать после регистрации на pirat.ca и получить 1000 дублонов.

Ваш код:
f612af22ea70acf5cbe90707ac5a076d215f8f7f
 
     

Освободите Джимми / Free Jimmy (Кристофер Нильсен / Christopher Nielsen) [2006 г., комедия, DVDRip]

Ответить на тему
 
Автор
Сообщение

Пост 29-Окт-2011 08:45

[Q] 

celticross

Морской Волк

Освободите Джимми / Free Jimmy
Год выпуска: 2006
Страна: Норвегия, Великобритания
Жанр: комедия
Продолжительность: 1:23:15
Перевод: Авторский (одноголосый)Д.Пучкова (Гоблина)
Режиссер: Кристофер Нильсен / Christopher Nielsen
В ролях: Вуди Харрельсон, Саймон Пегг, Фил Дэниелс, Джей Симпсон, Кайл МакЛахлан, Саманта Мортон, Джим Бродбент, Эмилия Фокс, Крис Маршалл, Лиза Максвелл, Джеймс Космо, Дуглас Хеншэлл, Дэвид Теннант, Расселл Барр, Стив Пембертон, Рис Шерсмит, Марк Гатисс, Уильям Хоуп, Меган Доддс, Джереми Прайс
Описание: Четверо «отвязных» рокеров -явных «отморозков» и психопатов - cлучайно попадают в бродячий цирк. Гвоздь цирковой программы – слон Джимми. Задача новых работничков – держать слона «под вечным кайфом» с помощью коктейля из наркотиков. Однако, слоник срывает все планы и накануне премьеры сбегает, не дождавшись «дозы». И начинается сумасшедшая гонка: проштрафившиеся парни должны нагнать Джимми, прежде, чем у того начнется «ломка» - а вы можете себе представить «ломку» у слона?!
В погоню за ними увязывается целая толпа – «зеленые» активисты, охотники-маньяки из Шотландии, мечтающие украсить гостиную головой слона и, наконец, лапландская мафия – «самые мерзкие люди на всем севере». Единственное спасение Джимми – добродушный лось, который встречается ему на пути. Поможет ли сохатый Джимми избавиться от пагубного пристрастия и кучки психов?
Качество: DVDRip
Формат: AVI
Видео кодек: XviD
Аудио кодек: AC3
Видео: XVID(GVC) 688 x 384 (25.00) 2346 Kbit/s
Аудио: 48 kHz, AC3, BitRate: 16h, ~448 kbps



Общее
Формат : AVI
Формат/Информация : Audio Video Interleave
Размер файла : 1,36 Гбайт
Продолжительность : 1 ч. 23 м.
Общий поток : 2346 Кбит/сек
Программа кодирования : FairUse Wizard - http://fairusewizard.com
Библиотека кодирования : The best and REALLY easy backup tool
Видео
Идентификатор : 0
Формат : MPEG-4 Visual
Профиль формата : Advanced [email protected]
Параметр BVOP формата : 1
Параметр QPel формата : Нет
Параметр GMC формата : Без точки перехода
Параметр матрицы формата : Default (MPEG)
Режим смешивания : Сжатый битовый поток
Идентификатор кодека : XVID
Идентификатор кодека/Подсказка : XviD
Продолжительность : 1 ч. 23 м.
Битрейт : 1888 Кбит/сек
Ширина : 688 пикселей
Высота : 384 пикселя
Соотношение сторон : 16:9
Частота кадров : 25,000 кадров/сек
Цветовое пространство : YUV
Субдискретизация насыщенности : 4:2:0
Битовая глубина : 8 бит
Тип развёртки : Прогрессивная
Метод сжатия : С потерями
Бит/(Пиксели*Кадры) : 0.286
Размер потока : 1,10 Гбайт (80%)
Библиотека кодирования : XviD 1.2.0.dev47 (UTC 2006-11-01)
Аудио
Идентификатор : 1
Формат : AC-3
Формат/Информация : Audio Coding 3
Расширение режима : CM (complete main)
Идентификатор кодека : 2000
Продолжительность : 1 ч. 23 м.
Вид битрейта : Постоянный
Битрейт : 448 Кбит/сек
Каналы : 6 каналов
Расположение каналов : Front: L C R, Side: L R, LFE
Частота : 48,0 КГц
Битовая глубина : 16 бит
Метод сжатия : С потерями
Размер потока : 267 Мбайт (19%)
Выравнивание : Разделение по промежуткам
Продолжительность промежутка : 40 мс. (1,00 видеокадр)
Время предзагрузки промежутка : 500 мс.
Download / Скачать

Хотите скачать бесплатно? Зарегистрируйтесь на сайте (ссылка на регистрацию). Pirat.ca - самый быстрый торрент трекер в рунете!

Как скачивать  ·   Что такое торрент  ·   Рейтинг и ограничения



Последний раз редактировалось: celticross (2011-11-06 22:15), всего редактировалось 4 раз(а)

Пост 30-Окт-2011 12:35 (спустя 1 день 3 часа)

Топик был перенесен из форума Мультипликация в форум Зарубежные полнометражные мультфильмы

bonifaci
 

ara1205

69744

Пост 04-Мар-2012 09:22 (спустя 4 месяца 6 дней)

[Q] 

[Профиль]  [ЛС] 

Nostromizer

Морской Волк

Пост 24-Окт-2013 11:42 (спустя 1 год 7 месяцев)

[Q] 

"Поможет ли сохатый Джимми избавиться от пагубного пристрастия и кучки психов?" - нет.

_________________
Mark It Zero!
[Профиль]  [ЛС] 
Показать сообщения:    
Ответить на тему

Текущее время: Сегодня 00:28

Часовой пояс: GMT + 4



Вы не можете начинать темы
Вы не можете отвечать на сообщения
Вы не можете редактировать свои сообщения
Вы не можете удалять свои сообщения
Вы не можете голосовать в опросах
Вы не можете прикреплять файлы к сообщениям
Вы не можете скачивать файлы

▼ Вниз