ML
     
  Уважаемый Гость!
Вы можете поддержать проект и зарегистрироваться у наших партнеров - онлайн-стратегия MyLands. При регистрации в игре Вы получите код, который сможете активировать после регистрации на pirat.ca и получить 1000 дублонов.

Ваш код:
8b752b428cf60a012c159dcae592cd1392170115
 
     

Волшебная страна / Летающая машина / The Flying Machine (Мартин Клэпп, Дорота Кобеля, Джофф Линдси / Мартин Клэпп, Dorota Kobiela, Джофф Линдси) [2011 г., мультфильм, приключения, семейный, BDRip] MVO (Лицензия) + Original (Eng)

Ответить на тему
 
Автор
Сообщение

Пост 21-Май-2013 12:34

[Q] 

Resident

-Волшебная страна / Летающая машина / The Flying Machine-- Производство: Великобритания, Польша, Китай, Индия, Норвегия / Breakthru Films, SMB Investments
Режиссер: Мартин Клэпп, Дорота Кобеля, Джофф Линдси / Мартин Клэпп, Dorota Kobiela, Джофф Линдси
Жанр: мультфильм, приключения, семейный
Год выпуска: 2011 г.
Продолжительность: 01:16:15
Мировая премьера: 12 февраля 2011
Российская премьера: 30 апреля 2013, «CP Дистрибуция»
Перевод: Профессиональный (многоголосый, закадровый) [Лицензия]
Оригинальный аудиопоток: английский
Роли озвучивали: Хэзер Грэм, Лэнг Лэнг, Джэми Муннс, Киззи Ми-Описание: Фильм рассказывает о занятой бизнес-леди Джорджи, которая берёт своих детей на просмотр мультфильма «Волшебное фортепиано», в котором всемирно известный пианист Ланг Ланг исполняет Шопена вживую. Главной героиней мультфильма является Анна — девочка, чей отец был вынужден уехать из Польши на заработки в Лондон. Однажды, Анна и её двоюродный брат Чип-Чип находят сломанное фортепиано, которое магическим образом превращается в летающую машину. На ней, дети отправляются в путешествие по Европе, в надежде найти отца девочки.Когда мультфильм заканчивается, Джорджи теряет своих детей и они попадают в волшебный анимационный мир, в котором женщине и предстоит их найти.-Сэмпл IMDB КиноПоиск
Качество видео: BDRip
Контейнер: AVI
Видео кодек: XviD
Аудио кодек: AC3
Видео: XviD, 1825 kb/s, 720x400, 23.976 fps, 0.264 bit / pix
Аудио: Rus: 48kHz, AC3, 448 kb/s (6 ch)
Аудио #2: Eng: 48kHz, AC3, 448 kb/s (6 ch)
Cубтитры: отсутствуют
General
Complete name : W:\Letajushhaja.mashina.2011.BDRip.avi
Format : AVI
Format/Info : Audio Video Interleave
File size : 1.46 GiB
Duration : 1h 16mn
Overall bit rate : 2 735 Kbps
Movie name : Letajushhaja.mashina.2011.BDRip
Genre : Animation | Adventure | Family
Writing application : VirtualDubMod 1.5.10.3 |(build 2550/release)
Original source form/Name : Movie
Video
ID : 0
Format : MPEG-4 Visual
Format profile : Advanced [email protected]
Format settings, BVOP : Yes
Format settings, QPel : No
Format settings, GMC : No warppoints
Format settings, Matrix : Custom
Codec ID : XVID
Codec ID/Hint : XviD
Duration : 1h 16mn
Bit rate : 1 825 Kbps
Width : 720 pixels
Height : 400 pixels
Display aspect ratio : 16:9
Frame rate : 23.976 fps
Color space : YUV
Chroma subsampling : 4:2:0
Bit depth : 8 bits
Scan type : Progressive
Bits/(Pixel*Frame) : 0.264
Stream size : 995 MiB (67%)
Writing library : XviD 1.2.1 (UTC 2008-12-04)
Audio #1
ID : 1
Format : AC-3
Format/Info : Audio Coding 3
Mode extension : CM (complete main)
Codec ID : 2000
Duration : 1h 16mn
Bit rate mode : Constant
Bit rate : 448 Kbps
Channel(s) : 6 channels
Channel positions : Front: L C R, Side: L R, LFE
Sampling rate : 48.0 KHz
Bit depth : 16 bits
Stream size : 244 MiB (16%)
Alignment : Split accross interleaves
Interleave, duration : 42 ms (1.00 video frame)
Interleave, preload duration : 500 ms
Audio #2
ID : 2
Format : AC-3
Format/Info : Audio Coding 3
Mode extension : CM (complete main)
Codec ID : 2000
Duration : 1h 16mn
Bit rate mode : Constant
Bit rate : 448 Kbps
Channel(s) : 6 channels
Channel positions : Front: L C R, Side: L R, LFE
Sampling rate : 48.0 KHz
Bit depth : 16 bits
Stream size : 244 MiB (16%)
Alignment : Split accross interleaves
Interleave, duration : 42 ms (1.00 video frame)
Interleave, preload duration : 500 ms
Download / Скачать

Хотите скачать бесплатно? Зарегистрируйтесь на сайте (ссылка на регистрацию). Pirat.ca - самый быстрый торрент трекер в рунете!

Как скачивать  ·   Что такое торрент  ·   Рейтинг и ограничения

Пост 21-Май-2013 12:45 (спустя 10 минут)

Топик был перенесен из форума Мультфильмы (Трюм) в форум Новинки (HD|DVD|BD| TV|SAT|PDTV| - Rips)

ara1205
 

bull271174

Флибустьер

Пост 21-Май-2013 12:56 (спустя 21 минута)

[Q] 

заценим!!!
[Профиль]  [ЛС] 

fanar

15

Пост 21-Май-2013 16:15 (спустя 3 часа)

[Q] 

не впечатлило
[Профиль]  [ЛС] 

polozm

Легенда

Пост 21-Май-2013 19:12 (спустя 2 часа 56 минут)

[Q] 

что они курят?

_________________
mac mini -2.0 GHz Intel Core i7/ 8 GB DDR3. /Intel HD 3000(512mb)OS X 10.9 Mavericks
[Профиль]  [ЛС] 

dimonpa

Гроза морей

Пост 22-Май-2013 15:08 (спустя 19 часов)

[Q] 

[Профиль]  [ЛС] 

Ambeg

Корсар

Пост 22-Май-2013 19:34 (спустя 4 часа)

[Q] 

372731что они курят?
У нас такое дорого стоит )))
[Профиль]  [ЛС] 

lightmaster

Флибустьер

Пост 22-Май-2013 21:36 (спустя 2 часа 1 минута)

[Q] 

Чё то какой-то компот производителей-особенно Польша и Индия!?В кальян забили пятку на полкило...
[Профиль]  [ЛС] 

vodoleii

Шкипер

Пост 25-Май-2013 18:30 (спустя 2 дня 20 часов)

[Q] 

[Профиль]  [ЛС] 

watsonix

Флибустьер

Пост 04-Июн-2013 21:03 (спустя 10 дней)

[Q] 

Наркомания до добра не доведёт! ck
[Профиль]  [ЛС] 

Пост 27-Июн-2013 10:20 (спустя 22 дня)

Топик был перенесен из форума Новинки (HD|DVD|BD| TV|SAT|PDTV| - Rips) в форум Зарубежные полнометражные мультфильмы

ara1205
 
Показать сообщения:    
Ответить на тему

Текущее время: Сегодня 06:22

Часовой пояс: GMT + 4



Вы не можете начинать темы
Вы не можете отвечать на сообщения
Вы не можете редактировать свои сообщения
Вы не можете удалять свои сообщения
Вы не можете голосовать в опросах
Вы не можете прикреплять файлы к сообщениям
Вы не можете скачивать файлы

▼ Вниз