ML
     
  Уважаемый Гость!
Вы можете поддержать проект и зарегистрироваться у наших партнеров - онлайн-стратегия MyLands. При регистрации в игре Вы получите код, который сможете активировать после регистрации на pirat.ca и получить 1000 дублонов.

Ваш код:
e6008d9811a0b6a1393c3dc51ecd7bc35637bc21
 
     

Братва из джунглей / Delhi Safari (Никхил Адвани / Nikhil Advani) [2012 г., мультфильм, DVDRip] Dub (Лицензия)

Ответить на тему
 
Автор
Сообщение

Пост 23-Май-2013 19:17

[Q] 

Resident

-Братва из джунглей / Delhi Safari-- «Давно не были в джунглях? Тогда мы идем к вам!» Производство: Индия / Krayon Pictures
Режиссер: Никхил Адвани / Nikhil Advani
Жанр: мультфильм
Год выпуска: 2012 г.
Продолжительность: 01:32:37
Мировая премьера: 19 октября 2012
Российская премьера: 11 апреля 2013, «Top Film Distribution»
Перевод: Профессиональный (полное дублирование) [Лицензия]
Роли озвучивали: Говинда, Акшай Кханна, Урмила Матондкар, Боман Ирани, Свини Кхера, Прем Чопра, Саурабх Шукла, Санджай Мишра, Дипак Добриял, Гириш Дхамиджа... Роли дублировали: Арарат Кещян, Андрей Рожков-Описание: Животные — обитатели национального парка возле Бомбея — встречают яркое солнечное утро под пение птиц. И вдруг идиллическую картинку дикой природы нарушает страшный грохот. Это, круша все на своем пути, джунгли атакует человек на бульдозере. На месте прекрасной рощи люди водружают табличку: здесь идет строительство жилого комплекса.
Смертельно напуганные звери ночью собираются на совет. Юный леопард Юви горячо убеждает взрослых не бросать свои жилища. «Горячая голова» воин-обезьяна, Бахранжи, готов объявить смертельную войну незваным гостям, но Гуру в области конфликтологии, медведь Багга предлагает договориться с людьми по-хорошему. Одомашненный говорящий попугай Алекс решает присоединиться к друзьям, чтобы выступить переводчиком.
Разношерстная компания пускается в долгое путешествие в столицу. Через горы и реки, на поездах и грузовиках, чтобы найти Главного Начальника и передать ему свое прошение. По дороге выясняется, что не только их дома, но и жилища тысяч других животных находятся в опасности. В финале захватывающего приключения различные животные становятся друзьями, поскольку их объединяет борьба за общий ДОМ.-
Качество видео: DVDRip (DVD5 R5)
Контейнер: AVI
Видео кодек: XviD
Аудио кодек: AC3
Видео: 720x304 (1.35:1), 25.000 fps, XviD ~ 1795 kbps avg, 0.328 bit/pixel
Аудио: Rus: 48 kHz, AC3, 6 ch, 448 kbps avg Dub (Лицензия)
Cубтитры: отсутствуют
General
Complete name : W:\Bratva.iz.dzhungley.2012.DVDRip.avi
Format : AVI
Format/Info : Audio Video Interleave
File size : 1.46 GiB
Duration : 1h 32mn
Overall bit rate : 2 252 Kbps
Writing application : VirtualDubMod 1.5.10.3 | (build 2550/release)
Writing library : VirtualDubMod build 2550/release
Video
ID : 0
Format : MPEG-4 Visual
Format profile : Advanced [email protected]
Format settings, BVOP : Yes
Format settings, QPel : No
Format settings, GMC : No warppoints
Format settings, Matrix : Custom
Codec ID : XVID
Codec ID/Hint : XviD
Duration : 1h 32mn
Bit rate : 1 795 Kbps
Width : 720 pixels
Height : 304 pixels
Display aspect ratio : 2.35:1
Frame rate : 25.000 fps
Color space : YUV
Chroma subsampling : 4:2:0
Bit depth : 8 bits
Scan type : Progressive
Bits/(Pixel*Frame) : 0.328
Stream size : 1.16 GiB (80%)
Writing library : XviD 65
Audio
ID : 1
Format : AC-3
Format/Info : Audio Coding 3
Mode extension : CM (complete main)
Codec ID : 2000
Duration : 1h 32mn
Bit rate mode : Constant
Bit rate : 448 Kbps
Channel(s) : 6 channels
Channel positions : Front: L C R, Side: L R, LFE
Sampling rate : 48.0 KHz
Bit depth : 16 bits
Stream size : 297 MiB (20%)
Alignment : Split accross interleaves
Interleave, duration : 40 ms (1.00 video frame)
Interleave, preload duration : 500 ms
Download / Скачать

Хотите скачать бесплатно? Зарегистрируйтесь на сайте (ссылка на регистрацию). Pirat.ca - самый быстрый торрент трекер в рунете!

Как скачивать  ·   Что такое торрент  ·   Рейтинг и ограничения

arhangel3105

Морской Волк

Пост 23-Май-2013 19:33 (спустя 16 минут)

[Q] 

anime13
[Профиль]  [ЛС] 

Пост 23-Май-2013 19:38 (спустя 4 минуты)

Топик был перенесен из форума Мультфильмы (Трюм) в форум Новинки (HD|DVD|BD| TV|SAT|PDTV| - Rips)

Jigsaw
 

[email protected]ail.ru

Пост 23-Май-2013 20:04 (спустя 30 минут)

[Q] 

Говнецо
[Профиль]  [ЛС] 

anatolijrudnev

Корсар

Пост 23-Май-2013 20:22 (спустя 17 минут)

[Q] 

[Профиль]  [ЛС] 

kuzhavaka

Морской Волк

Пост 23-Май-2013 20:35 (спустя 12 минут)

[Q] 

кака!
[Профиль]  [ЛС] 

dimonpa

Гроза морей

Пост 24-Май-2013 07:43 (спустя 11 часов)

[Q] 

[Профиль]  [ЛС] 

СерВолк

Корсар

Пост 25-Май-2013 16:52 (спустя 1 день 9 часов)

[Q] 

мульт понравился
жанр: мюзикл, приключения, комедия, семейный
[Профиль]  [ЛС] 

papa-rimskij123

Штурман

Пост 26-Май-2013 13:10 (спустя 20 часов)

[Q] 

Мульт посредственный одно то что сын говорит отцу,во время игры,что он надерет ему задницу,как то сразу разочаровывает в мульте. Диалоги болливуда подогнанные под голливуд но весь мульт в лучших традициях жанра.Дома посмотреть можно да и то если больше не чего,сюжет банален шутки плоские ,песни половину не переведены.В общем на 3 твердую.
[Профиль]  [ЛС] 

jesus-w

Корсар

Пост 26-Май-2013 14:49 (спустя 1 час 38 минут)

[Q] 

[Профиль]  [ЛС] 

leonid.

Флибустьер

Пост 26-Май-2013 23:17 (спустя 8 часов)

[Q] 

[Профиль]  [ЛС] 

Siba

Лоцман

Пост 29-Май-2013 10:56 (спустя 2 дня 11 часов)

[Q] 

[Профиль]  [ЛС] 

alex denver71

Флибустьер

Пост 29-Май-2013 14:38 (спустя 3 часа)

[Q] 

ay bf Детям мультик понравился bp Андрей Рожков bi bi bi
[Профиль]  [ЛС] 

Alex Yz

Гроза морей

Пост 30-Май-2013 09:21 (спустя 18 часов)

[Q] 

Блин, тошнилово. Скачал ориентируясь на современные мульты типа "Сезон охоты", а это подготовка детского мозга к сериалам типа бразильских. Сюжета НОЛЬ.
[Профиль]  [ЛС] 

JeBeDay

Шкипер

Пост 09-Июн-2013 20:15 (спустя 10 дней)

[Q] 

[Профиль]  [ЛС] 

Jek@

Легенда

Пост 10-Июн-2013 04:06 (спустя 7 часов)

[Q] 

.
[Профиль]  [ЛС] 

ubadm

Морской Волк

Пост 10-Июн-2013 14:18 (спустя 10 часов)

[Q] 

Прикольный мультик
[Профиль]  [ЛС] 

Пост 27-Июн-2013 10:20 (спустя 16 дней)

Топик был перенесен из форума Новинки (HD|DVD|BD| TV|SAT|PDTV| - Rips) в форум Зарубежные полнометражные мультфильмы

ara1205
 
Показать сообщения:    
Ответить на тему

Текущее время: Сегодня 02:05

Часовой пояс: GMT + 4



Вы не можете начинать темы
Вы не можете отвечать на сообщения
Вы не можете редактировать свои сообщения
Вы не можете удалять свои сообщения
Вы не можете голосовать в опросах
Вы не можете прикреплять файлы к сообщениям
Вы не можете скачивать файлы

▼ Вниз