ML
     
  Уважаемый Гость!
Вы можете поддержать проект и зарегистрироваться у наших партнеров - онлайн-стратегия MyLands. При регистрации в игре Вы получите код, который сможете активировать после регистрации на pirat.ca и получить 1000 дублонов.

Ваш код:
47bfc18b89c74e4ae0d974e9b6943639e2bff08e
 
     

Ледниковый период: Рождество мамонта / Ice Age: A Mammoth Christmas (Карен Дишер / Karen Disher) [2011 г., мультфильм, HDRip] (Dub)

Ответить на тему
 
Автор
Сообщение

Пост 24-Дек-2011 15:51

[Q] 

zyyx

--Ледниковый период: Рождество мамонта / Ice Age: A Mammoth Christmas-- Год выпуска: 2011
Мировая премьера: 24 ноября 2011
Дата выхода DVD: 22 декабря 2011, «Двадцатый Век Фокс СНГ»
Производство: США
Жанр: мультфильм
Продолжительность: 00:25:33
Перевод: Профессиональный (дублированый) [Лицензия]
Режиссер: Карен Дишер / Karen Disher
В ролях: Куин Латифа, Дэнис Лири, Джон Легуизамо, Рэй Романо, Джошуа Раш
Описание: Когда Сид случайно разрушает рождественскую скалу, Мэнни говорит ему, что Сид попал в черный список Санты, и что ленивцу придется лететь на северный полюс просить извинения у Санты. На северном полюсе Сид хотел все сделать как лучше, но только усугубил ситуацию . Теперь дело за Мэнни и компанией, только они объединившись сохранят Рождество для всего мира!
Источник/Качество: HDRip | Сэмпл
Формат: AVI
Видео кодек: XviD
Аудио кодек: AC3
Видео: 720x400 (1.80:1), 23.976 fps, XviD build 50, 1697 kbps avg, 0.25 bit/pixel
Аудио: 48 kHz, AC3 Dolby Digital, 3/2 (L,C,R,l,r) + LFE ch, 384 kbps
General
Complete name : F:\pirat.ca\Lednikovyj.period.gigantskoe.rozhdestvo.2011.D.HDRip.avi
Format : AVI
Format/Info : Audio Video Interleave
File size : 382 MiB
Duration : 25mn 33s
Overall bit rate : 2 090 Kbps
Writing application : VirtualDubMod 1.5.10.2 (build 2540/release)
Writing library : VirtualDubMod build 2540/release
Video
ID : 0
Format : MPEG-4 Visual
Format profile : Advanced [email protected]
Format settings, BVOP : 1
Format settings, QPel : Yes
Format settings, GMC : No warppoints
Format settings, Matrix : Default (H.263)
Codec ID : XVID
Codec ID/Hint : XviD
Duration : 25mn 33s
Bit rate : 1 698 Kbps
Width : 720 pixels
Height : 400 pixels
Display aspect ratio : 16:9
Frame rate : 23.976 fps
Color space : YUV
Chroma subsampling : 4:2:0
Bit depth : 8 bits
Scan type : Progressive
Compression mode : Lossy
Bits/(Pixel*Frame) : 0.246
Stream size : 310 MiB (81%)
Writing library : XviD 1.2.1 (UTC 2008-12-04)
Audio
ID : 1
Format : AC-3
Format/Info : Audio Coding 3
Mode extension : CM (complete main)
Codec ID : 2000
Duration : 25mn 30s
Bit rate mode : Constant
Bit rate : 384 Kbps
Channel(s) : 6 channels
Channel positions : Front: L C R, Side: L R, LFE
Sampling rate : 48.0 KHz
Bit depth : 16 bits
Compression mode : Lossy
Delay relative to video : 16ms
Stream size : 70.0 MiB (18%)
Alignment : Split accross interleaves
Interleave, duration : 42 ms (1.00 video frame)
Interleave, preload duration : 500 ms


Download / Скачать

Хотите скачать бесплатно? Зарегистрируйтесь на сайте (ссылка на регистрацию). Pirat.ca - самый быстрый торрент трекер в рунете!

Как скачивать  ·   Что такое торрент  ·   Рейтинг и ограничения



Последний раз редактировалось: zyyx (2011-12-25 04:10), всего редактировалось 1 раз

Пост 24-Дек-2011 19:33 (спустя 3 часа)

Топик был перенесен из форума Мультипликация в форум Новинки (HD|DVD|BD|TV|SAT|PDTV| - Rips)

CaptRom
 

Антон0007

Штурман

138

Пост 13-Фев-2012 22:21 (спустя 1 месяц 20 дней)

[Q] 

а это случаем не гигантское рождество?
[Профиль]  [ЛС] 

abc7

Гроза морей

464

Пост 26-Фев-2012 14:23 (спустя 12 дней)

[Q] 

Спасибо! Улыбнуло!
[Профиль]  [ЛС] 

sergein

Корсар

Пост 29-Фев-2012 13:47 (спустя 2 дня 23 часа)

[Q] 

[Профиль]  [ЛС] 

Пират

1474

Пост 02-Сен-2014 22:33 (спустя 2 года 6 месяцев)

[Q] 

96139а это случаем не гигантское рождество?
как я люблю релизиров с кучей бочек, которые с удовольствием отвечают на вопросы))

_________________
Всё, что с нами происходит - результат наших прошлых поступков. Наше будущее зависит от того, что мы делаем сейчас...
[Профиль]  [ЛС] 

SHERHAN

683

Пост 03-Сен-2014 07:52 (спустя 9 часов)

[Q] 

Отличный короткометражный мультик

_________________
Рыжий хищник, полосатый,
В меру наглый и усатый,
Днём и ночью он не спит,
Зорко в монитор глядит!
[Профиль]  [ЛС] 

UGR

Морской Волк

Пост 07-Дек-2014 23:02 (спустя 3 месяца 4 дня)

[Q] 

Спасибо!!! мульт супер
[Профиль]  [ЛС] 

stivgsm

Пост 16-Дек-2014 19:03 (спустя 8 дней)

[Q] 

возьму в коллекцию
[Профиль]  [ЛС] 
Показать сообщения:    
Ответить на тему

Текущее время: Сегодня 07:02

Часовой пояс: GMT + 4



Вы не можете начинать темы
Вы не можете отвечать на сообщения
Вы не можете редактировать свои сообщения
Вы не можете удалять свои сообщения
Вы не можете голосовать в опросах
Вы не можете прикреплять файлы к сообщениям
Вы не можете скачивать файлы

▼ Вниз