ML
     
  Уважаемый Гость!
Вы можете поддержать проект и зарегистрироваться у наших партнеров - онлайн-стратегия MyLands. При регистрации в игре Вы получите код, который сможете активировать после регистрации на pirat.ca и получить 1000 дублонов.

Ваш код:
822959f93c00d34653763d5bbf9ee9a7134af98a
 
     

Рататуй / Ratatouille (Брэд Бёрд / Brad Bird, Жан Пинкава / Jan Pinkava) [2007 г., фэнтези, комедия, семейный, HDRip] (Dub)

Ответить на тему
 
Автор
Сообщение

Пост 24-Дек-2011 21:05

[Q] 

Sirota

Легенда

Рататуй / Ratatouille Год выпуска: 2007
Мировая премьера: 22 июня 2007
Российская премьера: 28 июня 2007, «BVSPR»
Дата выхода DVD: 24 мая 2011, «Уолт Дисней Компани СНГ»
Производство: США
Жанр: фэнтези, комедия, семейный
Продолжительность: 01:50:33
Перевод: профессиональный (полное дублирование)
Автор(ы) перевода: Сергей Бурунов, Владимир Зайцев, Михаил Крылов, Сергей Гармаш, Игорь Письменный
Режиссер: Брэд Бёрд / Brad Bird, Жан Пинкава / Jan Pinkava
В ролях: Пэттон Освальт
Иэн Холм
Лу Романо
Брайан Деннехи
Питер Сон
Питер О’Тул
Брэд Гэррет
Джанин Гарофало
Уилл Арнетт
Джулиус Каллахан
Описание: Крыс Реми живет в подвале шикарного парижского ресторана и ежедневно рискует жизнью, добывая на кухне кусочки и крошки, оставшиеся от шедевров кулинарного искусства. Но гурману Реми этого мало — он втайне лелеет надежду стать заправским шеф-поваром.
Родственники Реми, привыкшие питаться отбросами, корят его за предательство традиций крысиного племени; работники ресторана стараются извести; и только поваренок Лингвини разделяет склонность Реми к несбыточным мечтам.
Доп. информация: сценарий Брэд Бёрд, Джим Капобьянко, Ян Пинкава,
продюсер Брэд Льюис, Джон Лассетер, Эндрю Стэнтон,
композитор Майкл Джаккино
художник Харли Джессуп
монтаж Даррен Т. Холмс
бюджет $150 000 000
сборы в США $206 445 654
сборы в мире + $414 980 354 = $621 426 008
сборы в России $10 147 600
DVD в США $184 865 691

IMDB, КиноПоиск
Источник/Качество: HDRip
Формат: AVI
Видео кодек: XviD
Аудио кодек: AC3
Видео: 720x304 (2.37:1), 23.976 fps, XviD build 50 ~1421 kbps avg, 0.27 bit/pixel
Аудио: 48 kHz, AC3 Dolby Digital, 3/2 (L,C,R,l,r) + LFE ch, ~448.00 kbps avg
Субтитры: нет
Оскар, 2008 год
Победитель (1):
Лучший анимационный фильм
Номинации (4):
Лучший сценарий
Лучший звук
Лучший монтаж звука
Лучший саундтрек
Золотой глобус, 2008 год
Победитель (1):
Лучший анимационный фильм
Британская академия, 2008 год
Победитель (1):
Лучший анимационный фильм
Кинонаграды «MTV-Россия», 2008 год
Победитель (1):
Лучший анимационный фильм
Жорж, 2008 год
Победитель (1):
Лучший анимационный фильм
Сатурн, 2008 год
Победитель (2):
Лучший сценарий
Лучший анимационный фильм
General
Format : AVI
Format/Info : Audio Video Interleave
File size : 1.45 GiB
Duration : 1h 50mn
Overall bit rate : 1 879 Kbps
Movie name : Рататуй / Ratatouille HDRip (2007)
Director : lcd1232
Genre : Fantasy\Comedy\Family
Writing application : VirtualDubModRus 1.5.10.2 (build 2542/release)
Original source form/Name : Anime
Video #0
ID : 0
Format : MPEG-4 Visual
Format profile : [email protected]
Format settings, BVOP : Yes
Format settings, QPel : No
Format settings, GMC : No warppoints
Format settings, Matrix : Default (MPEG)
Codec ID : XVID
Codec ID/Hint : XviD
Duration : 1h 50mn
Bit rate : 1 422 Kbps
Width : 720 pixels
Height : 304 pixels
Display aspect ratio : 2.35:1
Frame rate : 23.976 fps
Resolution : 24 bits
Colorimetry : 4:2:0
Scan type : Progressive
Bits/(Pixel*Frame) : 0.271
Stream size : 1.10 GiB (76%)
Writing library : XviD 1.2.1 (UTC 2008-12-04)
Audio #1
ID : 1
Format : AC-3
Format/Info : Audio Coding 3
Codec ID : 2000
Duration : 1h 50mn
Bit rate mode : Constant
Bit rate : 448 Kbps
Channel(s) : 6 channels
Channel positions : Front: L C R, Surround: L R, LFE
Sampling rate : 48.0 KHz
Stream size : 354 MiB (24%)
Alignment : Split accross interleaves
Interleave, duration : 42 ms (1.00 video frame)
Interleave, preload duration : 500 ms






-
-Релиз подготовлен:

-
-
Download / Скачать

Хотите скачать бесплатно? Зарегистрируйтесь на сайте (ссылка на регистрацию). Pirat.ca - самый быстрый торрент трекер в рунете!

Как скачивать  ·   Что такое торрент  ·   Рейтинг и ограничения

Пост 24-Дек-2011 22:32 (спустя 1 час 26 минут)

Топик был перенесен из форума Мультипликация в форум Зарубежные полнометражные мультфильмы

zyyx
 

CHARLI2236

1097

Пост 30-Окт-2012 13:27 (спустя 10 месяцев 5 дней)

[Q] 

спс

_________________
[Профиль]  [ЛС] 

Чукча666

Лоцман

Пост 07-Апр-2013 15:05 (спустя 5 месяцев 8 дней)

[Q] 

anime79 anime25 anime57
[Профиль]  [ЛС] 

RozM

Морской Волк

Пост 02-Ноя-2013 13:06 (спустя 6 месяцев 24 дня)

[Q] 

Спасибо! Отличный мультик.
[Профиль]  [ЛС] 

Alexlogin

Гроза морей

105

Пост 04-Мар-2015 21:37 (спустя 1 год 4 месяца)

[Q] 

Спасибо доча очень довольна
[Профиль]  [ЛС] 

Dejavu_Dmitry

Морской Волк

Пост 10-Июн-2015 23:22 (спустя 3 месяца 6 дней)

[Q] 

Спасибо огромное!!!
[Профиль]  [ЛС] 
Показать сообщения:    
Ответить на тему

Текущее время: Сегодня 05:55

Часовой пояс: GMT + 4



Вы не можете начинать темы
Вы не можете отвечать на сообщения
Вы не можете редактировать свои сообщения
Вы не можете удалять свои сообщения
Вы не можете голосовать в опросах
Вы не можете прикреплять файлы к сообщениям
Вы не можете скачивать файлы

▼ Вниз