ML
     
  Уважаемый Гость!
Вы можете поддержать проект и зарегистрироваться у наших партнеров - онлайн-стратегия MyLands. При регистрации в игре Вы получите код, который сможете активировать после регистрации на pirat.ca и получить 1000 дублонов.

Ваш код:
e6008d9811a0b6a1393c3dc51ecd7bc35637bc21
 
     

Скуби-Ду и Король Гоблинов / Scooby-Doo And The Goblin King (Джо Сичта / Joe Sichta) [2008 г., комедия, приключения, ужасы, семейный, DVDRip] (Dub)

Ответить на тему
 
Автор
Сообщение

Пост 24-Дек-2011 22:05

[Q] 

Sirota

Легенда

Скуби-Ду и Король Гоблинов / Scooby-Doo And The Goblin King Год выпуска: 2008
Мировая премьера: 23 сентября 2008
Дата выхода DVD: 21 октября 2008, «Юниверсал Пикчерс Рус»
Производство: США
Жанр: комедия, приключения, ужасы, семейный
Продолжительность: 01:11:24
Перевод: профессиональный (полное дублирование)
Режиссер: Джо Сичта / Joe Sichta
В ролях: Фрэнк Уэлкер
Кэйси Касэм
Грей ДеЛайл
Минди Кон
Уэйн Найт
Уоллес Шоун
Хайден Панеттьери
Тим Карри
Джеймс Белуши
Ларри Джо Кэмпбелл
Описание: Удивительный Крадский, неудачный волшебник, крадет волшебную силу у принцессы, а Скуби-Ду и Шэгги должны остановить его, иначе все превратятся в ужасных монстров Хэллоуина! Наши герои отправляются по железной дороге Ужасного Жнеца в фантастический мир Хэллоуина, чтобы, вернуть скипетр Гоблина из рук короля Гоблинов до наступления полуночи.
По дороге они встречают Всадника Без Головы, своих помощников фонаря из тыквы и резвую метлу, которые ведут их в путешествие по загробной жизни.
Доп. информация: сценарий Джо Сичта
продюсер Джо Сичта, Вера Моралес
композитор Томас Чейз
монтаж Джо Галь
IMDB, КиноПоиск
Источник/Качество: DVDRip
Формат: AVI
Видео кодек: XviD
Аудио кодек: AC3
Видео: 720x544 (1.32:1), 25 fps, XviD build 50 ~2337 kbps avg, 0.24 bit/pixel
Аудио: Русский 48 kHz, AC3 Dolby Digital, 2/0 (L,R) ch, ~192.00 kbps avg
Аудио #2: Английский 48 kHz, AC3 Dolby Digital, 3/2 (L,C,R,l,r) + LFE ch, ~384.00 kbps avg
Субтитры: нет
General
Format : AVI
Format/Info : Audio Video Interleave
File size : 1.46 GiB
Duration : 1h 11mn
Overall bit rate : 2 928 Kbps
Writing application : VirtualDubMod 1.5.10.3 (build 2550/release)
Writing library : VirtualDubMod build 2550/release
Video #0
ID : 0
Format : MPEG-4 Visual
Format profile : [email protected]
Format settings, BVOP : Yes
Format settings, QPel : No
Format settings, GMC : No warppoints
Format settings, Matrix : Default (MPEG)
Codec ID : XVID
Codec ID/Hint : XviD
Duration : 1h 11mn
Bit rate : 2 338 Kbps
Width : 720 pixels
Height : 544 pixels
Display aspect ratio : 4:3
Frame rate : 25.000 fps
Resolution : 24 bits
Colorimetry : 4:2:0
Scan type : Progressive
Bits/(Pixel*Frame) : 0.239
Stream size : 1.17 GiB (80%)
Writing library : XviD 1.2.1 (UTC 2008-12-04)
Audio #1
ID : 1
Format : AC-3
Format/Info : Audio Coding 3
Codec ID : 2000
Duration : 1h 11mn
Bit rate mode : Constant
Bit rate : 192 Kbps
Channel(s) : 2 channels
Channel positions : L R
Sampling rate : 48.0 KHz
Stream size : 98.1 MiB (7%)
Alignment : Split accross interleaves
Interleave, duration : 40 ms (1.00 video frame)
Interleave, preload duration : 500 ms
Audio #2
ID : 2
Format : AC-3
Format/Info : Audio Coding 3
Codec ID : 2000
Duration : 1h 11mn
Bit rate mode : Constant
Bit rate : 384 Kbps
Channel(s) : 6 channels
Channel positions : Front: L C R, Surround: L R, LFE
Sampling rate : 48.0 KHz
Stream size : 196 MiB (13%)
Alignment : Split accross interleaves
Interleave, duration : 40 ms (1.00 video frame)
Interleave, preload duration : 500 ms








-
-Релиз подготовлен:

-
-
Download / Скачать

Хотите скачать бесплатно? Зарегистрируйтесь на сайте (ссылка на регистрацию). Pirat.ca - самый быстрый торрент трекер в рунете!

Как скачивать  ·   Что такое торрент  ·   Рейтинг и ограничения



Последний раз редактировалось: Sirota (2011-12-24 22:36), всего редактировалось 1 раз

Пост 24-Дек-2011 22:32 (спустя 26 минут)

Топик был перенесен из форума Мультипликация в форум Зарубежные полнометражные мультфильмы

zyyx
 

CHARLI2236

1097

Пост 30-Окт-2012 13:33 (спустя 10 месяцев 5 дней)

[Q] 

спс

_________________
[Профиль]  [ЛС] 
Показать сообщения:    
Ответить на тему

Текущее время: Сегодня 02:05

Часовой пояс: GMT + 4



Вы не можете начинать темы
Вы не можете отвечать на сообщения
Вы не можете редактировать свои сообщения
Вы не можете удалять свои сообщения
Вы не можете голосовать в опросах
Вы не можете прикреплять файлы к сообщениям
Вы не можете скачивать файлы

▼ Вниз