ML
     
  Уважаемый Гость!
Вы можете поддержать проект и зарегистрироваться у наших партнеров - онлайн-стратегия MyLands. При регистрации в игре Вы получите код, который сможете активировать после регистрации на pirat.ca и получить 1000 дублонов.

Ваш код:
c89b4b6523eaac3173e9a9c062ac1a19db575961
 
     

Эрнест и Селестина: Приключения мышки и медведя / Ernest et Celestine (Стефани Обье / Stéphane Aubier, Венсан Патар / Vincent Patar, Бенжамин Реннер / Benjamin Renner) [2012 г., Мультфильм, HDRip] Dub (Лицензия) «Вольга»

Ответить на тему
 
Автор
Сообщение

Пост 07-Июн-2013 16:58

[Q] 

Resident

-Эрнест и Селестина: Приключения мышки и медведя / Ernest et Celestine--«Кажется, это начало прекрасной дружбы» Производство: Франция
Режиссер: Стефани Обье / Stéphane Aubier, Венсан Патар / Vincent Patar, Бенжамин Реннер / Benjamin Renner
Жанр: Мультфильм
Год выпуска: 2012 г.
Продолжительность: 01:19:20
Мировая премьера: 23 мая 2012
Российская премьера: 28 марта 2013, «Вольга»Дата выхода DVD : 23 апреля 2013, «Вольга»,Перевод: Профессиональный (полное дублирование) [Лицензия]
Роли озвучивали: Ламбер Вильсон, Полин Бруннер, Энн-Мари Луп-Описание: Большая дружба начинается с малого… Она — маленькая мышка, он — огромный медведь. Она — ребенок, он — взрослый. Она мечтает быть художницей, хотя по правилам своего мира должна стать дантистом, он — музыкант и поэт, ведущий бездумную жизнь и никогда не имеющий куска хлеба на завтра. Они живут в разных мирах: для обитателей мышиного царства нет ничего более дикого, чем подружиться с «большим плохим медведем», да и его соседи вряд ли поймут, зачем водиться с мышкой. Но дружба и родство душ сродни настоящему волшебству. И какое этой парочке дело до условностей, разницы в размере, исторических предрассудков и культурных барьеров?-
Качество видео: HDRip
Контейнер: AVI
Видео кодек: XviD
Аудио кодек: AC3
Видео: 720x400 (1.80:1), 23.976 fps, XviD build 50 ~2007 kbps avg, 0.29 bit/pixel
Аудио: 48 kHz, AC3 Dolby Digital, 3/2 (L,C,R,l,r) + LFE ch, ~448 kbps
Cубтитры: отсутствуют
General
Complete name : W:\Ernest et Celestine.HDRip.avi
Format : AVI
Format/Info : Audio Video Interleave
File size : 1.37 GiB
Duration : 1h 19mn
Overall bit rate : 2 465 Kbps
Writing application : VirtualDubMod 1.5.10.2 (build 2540/release)
Video
ID : 0
Format : MPEG-4 Visual
Format profile : Advanced [email protected]
Format settings, BVOP : Yes
Format settings, QPel : No
Format settings, GMC : No warppoints
Format settings, Matrix : Custom
Codec ID : XVID
Codec ID/Hint : XviD
Duration : 1h 19mn
Bit rate : 2 008 Kbps
Width : 720 pixels
Height : 400 pixels
Display aspect ratio : 16:9
Frame rate : 23.976 fps
Color space : YUV
Chroma subsampling : 4:2:0
Bit depth : 8 bits
Scan type : Progressive
Bits/(Pixel*Frame) : 0.291
Stream size : 1.11 GiB (81%)
Writing library : XviD 1.2.1 (UTC 2008-12-04)
Audio
ID : 1
Format : AC-3
Format/Info : Audio Coding 3
Mode extension : CM (complete main)
Codec ID : 2000
Duration : 1h 19mn
Bit rate mode : Constant
Bit rate : 448 Kbps
Channel(s) : 6 channels
Channel positions : Front: L C R, Side: L R, LFE
Sampling rate : 48.0 KHz
Bit depth : 16 bits
Stream size : 254 MiB (18%)
Alignment : Split accross interleaves
Interleave, duration : 42 ms (1.00 video frame)
Interleave, preload duration : 500 ms
Сезар - Победитель 2013 : Лучший анимационный фильм
Download / Скачать

Хотите скачать бесплатно? Зарегистрируйтесь на сайте (ссылка на регистрацию). Pirat.ca - самый быстрый торрент трекер в рунете!

Как скачивать  ·   Что такое торрент  ·   Рейтинг и ограничения

polozm

Легенда

Пост 07-Июн-2013 19:22 (спустя 2 часа 23 минуты)

[Q] 

Спасибо!Вроде везде хвалят его.надо глянуть

_________________
mac mini -2.0 GHz Intel Core i7/ 8 GB DDR3. /Intel HD 3000(512mb)OS X 10.9 Mavericks
[Профиль]  [ЛС] 

chtv

Шкипер

Пост 07-Июн-2013 20:18 (спустя 56 минут)

[Q] 

Ходили с дочерью в кино. Понравилось всем.
[Профиль]  [ЛС] 

polozm

Легенда

Пост 08-Июн-2013 11:16 (спустя 14 часов)

[Q] 

МОЖЕТ ПОКАЗАЛОСЬ!!!а не скрытая ли это пропаганда педерастии?мульт французский...у них там уже семью недавно на пикнике арестовали и штрафанули(у папы футболка была с рисунком родителей и детей) за пропаганду гетеросексуальной семьи и ущемление гомосексуальных пар... bm bc
"В столице Франции был арестован мужчина за гетеросексуальную надпись на его свитере. Согласно вновь принятому закону такого рода надписи являются неуважительными к гомосексуальным парам. Власти признали одежду безнравственной, поскольку надпись на ней открыто несет пропаганду гетеросексуальным отношениям.
Полицейские сделали заключение, что надпись может оскорблять чувства гомосексуалистов и арестовали мужчину. Ему выписали штраф за «неправильную» кофту в сумме несколько тысяч евро."

_________________
mac mini -2.0 GHz Intel Core i7/ 8 GB DDR3. /Intel HD 3000(512mb)OS X 10.9 Mavericks
[Профиль]  [ЛС] 

polozm

Легенда

Пост 08-Июн-2013 12:15 (спустя 58 минут)

[Q] 

нарисован СУПЕР!!!

_________________
mac mini -2.0 GHz Intel Core i7/ 8 GB DDR3. /Intel HD 3000(512mb)OS X 10.9 Mavericks
[Профиль]  [ЛС] 

Aleks44

Гроза морей

Пост 08-Июн-2013 18:02 (спустя 5 часов)

[Q] 

Остро стоит вопрос почему нельзя мышке жить с медведем, конечно это скрытый намек на секс меньшинство, а в целом мульт можно посмотреть, как мульт он так ниже среднего
[Профиль]  [ЛС] 

янка-сан

Гроза морей

Пост 25-Июл-2013 01:43 (спустя 1 месяц 16 дней)

[Q] 

удивительно - мультик подходит и для взрослых и для детей. каждый найдет там что то для себя.
[Профиль]  [ЛС] 

Alex Yz

Гроза морей

Пост 24-Авг-2013 20:37 (спустя 30 дней)

[Q] 

Класный фильм!!! Для детей.
Спасибо большое за раздачу.
[Профиль]  [ЛС] 

XSS

Штурман

Пост 14-Окт-2013 02:30 (спустя 1 месяц 20 дней)

[Q] 

Выложите исходник, будьте человеком! SOS!!!
[Профиль]  [ЛС] 

deFRAGmentator

Морской Волк

Пост 12-Дек-2013 22:46 (спустя 1 месяц 29 дней)

[Q] 

Спасибо глянем
[Профиль]  [ЛС] 

shalonina

Гроза морей

Пост 26-Авг-2014 16:48 (спустя 8 месяцев 13 дней)

[Q] 

посмотрим...................................................................

_________________
[Профиль]  [ЛС] 
Показать сообщения:    
Ответить на тему

Текущее время: Сегодня 22:30

Часовой пояс: GMT + 4



Вы не можете начинать темы
Вы не можете отвечать на сообщения
Вы не можете редактировать свои сообщения
Вы не можете удалять свои сообщения
Вы не можете голосовать в опросах
Вы не можете прикреплять файлы к сообщениям
Вы не можете скачивать файлы

▼ Вниз