ML
     
  Уважаемый Гость!
Вы можете поддержать проект и зарегистрироваться у наших партнеров - онлайн-стратегия MyLands. При регистрации в игре Вы получите код, который сможете активировать после регистрации на pirat.ca и получить 1000 дублонов.

Ваш код:
0af2e2107bc9b5dd5ac2c09f9fc25e1a77c43887
 
     

LEGO: Бэтмен: Супергерои DC объединяются / LEGO Batman: The Movie - DC Super Heroes Unite (Джон Бартон / Jon Burton) [2013 г., мультфильм, боевик, триллер, HDRip] Dub [Лицензия] + Original (Eng)

Ответить на тему
 
Автор
Сообщение

Пост 09-Июн-2013 09:14

[Q] 

aleksey99

-LEGO: Бэтмен: Супергерои DC объединяются / LEGO Batman: The Movie - DC Super Heroes Unite-- -Производство: США, Великобритания / C Comics, LEGO Group, The, LEGO
Год выпуска: 2013 г.
Жанр: мультфильм, боевик, триллер
Продолжительность: 01:10:44
Мировая премьера: 21 мая 2013
Дата выхода DVD: 6 июня 2013, «CP Дистрибуция»
Перевод: Профессиональный (полное дублирование)[Лицензия]
Оригинальный аудиопоток: Английский
Режиссер: Джон Бартон / Jon Burton-В ролях: Трой Бэйкер, Брайан Блум, Стивен Блум, Клэнси Браун, Кэм Кларк, Таунсенд Коулмэн, Кристиан Элисондо, Захари Хевн, Роб Полсен-Описание: От производителя В Готэме вручают награду «Гражданин года». Но неожиданно, на вечеринку заявляется Джокер и с ним целая свита злодеев: Загадочник, Женщина-Кошка и Двуликий. Темный рыцарь приходит на помощь, чтобы обуздать этих нежданных гостей. Но не всех преступников видно невооруженным глазом. Леке Лютор пронес на вечеринку Деконструктор — секретное оружие, теперь баланс сил в Готэме может измениться навсегда! С такими противниками Бэтмен и Робин будут долго биться в одиночку. Хорошо, что у них есть Супер-друзья! Присоединяйтесь к борьбе со злом вместе с Суперменом, Чудо-женщиной, Зеленым фонарем и Лигой Справедливости! Они спешат защитить невинных, спасти Готэм-сити и, конечно, не упустят шанс пошутить. Вас ждут абсолютно новые захватывающие моменты, которых не было в видео-игре. Это первый полнометражный фильм про Лего Бэтмена. Кто знает, может, и он не откажется повеселиться!-
Качество видео: HDRip
Контейнер: AVI
Видео кодек: XviD
Аудио кодек: AC-3
Видео: 720x400 (1.80:1), 23.976 fps, XviD MPEG-4 ~2109 kbps avg, 0.30 bit/pixel
Аудио 1: 48 kHz, AC3 Dolby Digital, 2/0 (L,R) ch, ~192 kbps Dub [Лицензия]
Аудио 2: 48 kHz, AC3 Dolby Digital, 3/2 (L,C,R,l,r) + LFE ch, ~448 kbps [Eng]
Cубтитры: Отсутствуют
Общее
Полное имя : H:\Torrent2\LEGO.Batman.The.Movie.2013.D.HDRip [pirat.ca].avi
Формат : AVI
Формат/Информация : Audio Video Interleave
Размер файла : 1,37 Гбайт
Продолжительность : 1 ч. 10 м.
Общий поток : 2764 Кбит/сек
Жанр : Animation | Action | Adventure
Программа кодирования : VirtualDubMod 1.5.10.2 (build 2540/release)
Видео
Идентификатор : 0
Формат : MPEG-4 Visual
Профиль формата : Advanced [email protected]
Параметр BVOP формата : 2
Параметр QPel формата : Нет
Параметр GMC формата : Без точки перехода
Параметр матрицы формата : Выборочная
Идентификатор кодека : XVID
Идентификатор кодека/Подсказка : XviD
Продолжительность : 1 ч. 10 м.
Битрейт : 2110 Кбит/сек
Ширина : 720 пикселей
Высота : 400 пикселей
Соотношение сторон : 16:9
Частота кадров : 23,976 кадра/сек
Цветовое пространство : YUV
Субдискретизация насыщенности : 4:2:0
Битовая глубина : 8 бит
Тип развёртки : Прогрессивная
Метод сжатия : С потерями
Бит/(Пиксели*Кадры) : 0.306
Размер потока : 1,04 Гбайт (76%)
Библиотека кодирования : XviD 64
Аудио #1
Идентификатор : 1
Формат : AC-3
Формат/Информация : Audio Coding 3
Расширение режима : CM (complete main)
Параметр Endianness формата : Big
Идентификатор кодека : 2000
Продолжительность : 1 ч. 10 м.
Вид битрейта : Постоянный
Битрейт : 192 Кбит/сек
Каналы : 2 канала
Расположение каналов : Front: L R
Частота : 48,0 КГц
Битовая глубина : 16 бит
Метод сжатия : С потерями
Размер потока : 97,2 Мбайт (7%)
Выравнивание : Разделение по промежуткам
Продолжительность промежутка : 42 мс. (1,00 видеокадр)
Время предзагрузки промежутка : 500 мс.
Аудио #2
Идентификатор : 2
Формат : AC-3
Формат/Информация : Audio Coding 3
Расширение режима : CM (complete main)
Параметр Endianness формата : Big
Идентификатор кодека : 2000
Продолжительность : 1 ч. 10 м.
Вид битрейта : Постоянный
Битрейт : 448 Кбит/сек
Каналы : 6 каналов
Расположение каналов : Front: L C R, Side: L R, LFE
Частота : 48,0 КГц
Битовая глубина : 16 бит
Метод сжатия : С потерями
Размер потока : 227 Мбайт (16%)
Выравнивание : Разделение по промежуткам
Продолжительность промежутка : 42 мс. (1,00 видеокадр)
Время предзагрузки промежутка : 500 мс.
Трейлер
Download / Скачать

Хотите скачать бесплатно? Зарегистрируйтесь на сайте (ссылка на регистрацию). Pirat.ca - самый быстрый торрент трекер в рунете!

Как скачивать  ·   Что такое торрент  ·   Рейтинг и ограничения

igorexa1111

Корсар

Пост 09-Июн-2013 10:34 (спустя 1 час 19 минут)

[Q] 

скорость то где?
[Профиль]  [ЛС] 

Пост 09-Июн-2013 11:33 (спустя 58 минут)

Топик был перенесен из форума Мультфильмы (Трюм) в форум Новинки (HD|DVD|BD| TV|SAT|PDTV| - Rips)

ara1205
 

Aleks44

Гроза морей

Пост 09-Июн-2013 19:57 (спустя 9 часов)

[Q] 

Нормальный мульт качественно исполнен
[Профиль]  [ЛС] 

lightmaster

Флибустьер

Пост 12-Июн-2013 14:46 (спустя 2 дня 18 часов)

[Q] 

Ребенок в радости,комментирует наперед-сказывается игры в компе... Спасибо
[Профиль]  [ЛС] 

Blad100500

Шкипер

Пост 13-Мар-2014 15:39 (спустя 9 месяцев 1 день)

[Q] 

Лови бочку Спасибо!!!

_________________
Внимание. Ниже ссылка на twitch со стримами
Виктория стримит для вас
Ты не обязан переходить туда. Но ты можешь это сделать и передать привет с трекера
[Профиль]  [ЛС] 
Показать сообщения:    
Ответить на тему

Текущее время: Сегодня 00:02

Часовой пояс: GMT + 4



Вы не можете начинать темы
Вы не можете отвечать на сообщения
Вы не можете редактировать свои сообщения
Вы не можете удалять свои сообщения
Вы не можете голосовать в опросах
Вы не можете прикреплять файлы к сообщениям
Вы не можете скачивать файлы

▼ Вниз