ML
     
  Уважаемый Гость!
Вы можете поддержать проект и зарегистрироваться у наших партнеров - онлайн-стратегия MyLands. При регистрации в игре Вы получите код, который сможете активировать после регистрации на pirat.ca и получить 1000 дублонов.

Ваш код:
e6008d9811a0b6a1393c3dc51ecd7bc35637bc21
 
     

LEGO: Бэтмен: Супергерои DC объединяются / LEGO Batman: The Movie - DC Super Heroes Unite (Джон Бартон / Jon Burton) [2013 г., мультфильм, боевик, триллер, криминал, приключения, HDRip] Dub [Лицензия]

Ответить на тему
 
Автор
Сообщение

Пост 11-Июн-2013 17:23

[Q] 

ara1205

-LEGO: Бэтмен: Супергерои DC объединяются / LEGO Batman: The Movie - DC Super Heroes Unite-- Производство: США, Великобритания
Год выпуска: 2013 г.
Жанр: мультфильм, боевик, триллер, криминал, приключения
Продолжительность: 01:10:44
Перевод: Профессиональный (полное дублирование) [Лицензия]-Режиссер: Джон Бартон / Jon Burton-Описание: От производителя В Готэме вручают награду «Гражданин года». Но неожиданно, на вечеринку заявляется Джокер и с ним целая свита злодеев: Загадочник, Женщина-Кошка и Двуликий. Темный рыцарь приходит на помощь, чтобы обуздать этих нежданных гостей. Но не всех преступников видно невооруженным глазом. Леке Лютор пронес на вечеринку Деконструктор — секретное оружие, теперь баланс сил в Готэме может измениться навсегда! С такими противниками Бэтмен и Робин будут долго биться в одиночку. Хорошо, что у них есть Супер-друзья! Присоединяйтесь к борьбе со злом вместе с Суперменом, Чудо-женщиной, Зеленым фонарем и Лигой Справедливости! Они спешат защитить невинных, спасти Готэм-сити и, конечно, не упустят шанс пошутить. Вас ждут абсолютно новые захватывающие моменты, которых не было в видео-игре. Это первый полнометражный фильм про Лего Бэтмена. Кто знает, может, и он не откажется повеселиться!- -Качество видео: HDRip
Контейнер: AVI
Видео кодек: XviD
Аудио кодек: AC3
Видео: 688x384, 23.976 fps, 1269 kbps avg, 0.20 bit/pixel
Аудио: 48 kHz, AC3 Dolby Digital, 2/0 (L,R) ch, ~192 kbps
Cубтитры: отсутствуют-
Общее
Полное имя : C:\Users\Ромик\Pictures\LEGO Бэтмен\LEGO.Batman.The.Movie.DC.Super.Heroes.Unite.745Mb.avi
Формат : AVI
Формат/Информация : Audio Video Interleave
Размер файла : 744 Мбайт
Продолжительность : 1 ч. 10 м.
Общий поток : 1471 Кбит/сек
Название фильма : LEGO.Batman.The.Movie.DC.Super.Heroes.Unite.745Mb.[pirat.ca]
Программа кодирования : VirtualDubMod 1.5.10.2 (build 2540/release)
Видео
Идентификатор : 0
Формат : MPEG-4 Visual
Профиль формата : Advanced [email protected]
Параметр BVOP формата : 2
Параметр QPel формата : Нет
Параметр GMC формата : Без точки перехода
Параметр матрицы формата : Default (MPEG)
Идентификатор кодека : XVID
Идентификатор кодека/Подсказка : XviD
Продолжительность : 1 ч. 10 м.
Битрейт : 1269 Кбит/сек
Ширина : 688 пикселей
Высота : 384 пикселя
Соотношение сторон : 16:9
Частота кадров : 23,976 кадра/сек
Цветовое пространство : YUV
Субдискретизация насыщенности : 4:2:0
Битовая глубина : 8 бит
Тип развёртки : Прогрессивная
Метод сжатия : С потерями
Бит/(Пиксели*Кадры) : 0.200
Размер потока : 642 Мбайт (86%)
Библиотека кодирования : XviD 1.2.0.dev47 (UTC 2006-11-01)
Аудио
Идентификатор : 1
Формат : AC-3
Формат/Информация : Audio Coding 3
Профиль формата : Dolby Digital
Расширение режима : CM (complete main)
Параметр Endianness формата : Big
Идентификатор кодека : 2000
Продолжительность : 1 ч. 10 м.
Вид битрейта : Постоянный
Битрейт : 192 Кбит/сек
Каналы : 2 канала
Расположение каналов : Front: L R
Частота : 48,0 КГц
Битовая глубина : 16 бит
Метод сжатия : С потерями
Размер потока : 97,2 Мбайт (13%)
Выравнивание : Разделение по промежуткам
Продолжительность промежутка : 42 мс. (1,00 видеокадр)
Время предзагрузки промежутка : 500 мс.
-
-
-
Download / Скачать

Хотите скачать бесплатно? Зарегистрируйтесь на сайте (ссылка на регистрацию). Pirat.ca - самый быстрый торрент трекер в рунете!

Как скачивать  ·   Что такое торрент  ·   Рейтинг и ограничения

cyxoucyxapb1

Лоцман

Пост 12-Июн-2013 00:55 (спустя 7 часов)

[Q] 

фигня. не качайте
[Профиль]  [ЛС] 

yulya230784

Морской Волк

927

Пост 26-Июн-2013 00:38 (спустя 13 дней)

[Q] 

[Профиль]  [ЛС] 

янка-сан

Гроза морей

Пост 26-Июн-2013 22:25 (спустя 21 час)

[Q] 

[Профиль]  [ЛС] 

lusikov

Шкипер

Пост 10-Июл-2013 02:49 (спустя 13 дней)

[Q] 

Как всегда, классный трейлер, а на деле...
для кого они делали этот мультфильм? если для каждого персонажа постарались бы, так как сделали Бэтмена, а он самый яркий и колоритный персонаж, то можно было бы смотреть всем человекам, а так ˜—˜ для фанатов и детей школьного возраста, всем остальным будет скучно, как и мне.
[Профиль]  [ЛС] 

sorvigolova

Корсар

799

Пост 13-Июл-2013 18:19 (спустя 3 дня)

[Q] 

Фильм года)
[Профиль]  [ЛС] 
Показать сообщения:    
Ответить на тему

Текущее время: Сегодня 02:03

Часовой пояс: GMT + 4



Вы не можете начинать темы
Вы не можете отвечать на сообщения
Вы не можете редактировать свои сообщения
Вы не можете удалять свои сообщения
Вы не можете голосовать в опросах
Вы не можете прикреплять файлы к сообщениям
Вы не можете скачивать файлы

▼ Вниз