ML
     
  Уважаемый Гость!
Вы можете поддержать проект и зарегистрироваться у наших партнеров - онлайн-стратегия MyLands. При регистрации в игре Вы получите код, который сможете активировать после регистрации на pirat.ca и получить 1000 дублонов.

Ваш код:
a261790f23fb05d13d060bdee9cb70d1451a6d3d
 
     

Риф 3D / The Reef 2: High Tide (Марк А.З. Диппе, Тадонг Пак / Mark A.Z. Dippé, Taedong Park) [2012 г., мультфильм, фэнтези, приключения, семейный, HDRip] Dub [Лицензия]

Ответить на тему
 
Автор
Сообщение

Пост 14-Июн-2013 13:17

[Q] 

aleksey99

-Риф 3D / The Reef 2: High Tide--«За коралл ответишь!» -Производство: Корея Южная, США / WonderWorld Studios, Animation Picture Company
Год выпуска: 2012 г.
Жанр: мультфильм, фэнтези, приключения, семейный
Продолжительность: 01:20:17--Мировая премьера: 30 октября 2012
Российская премьера: 25 апреля 2013, «Наше Кино»
Релиз на DVD: 27 июня 2013, «Флагман-Трейд»
Релиз на Blu-Ray: 27 июня 2013, «Флагман-Трейд»--Перевод: Профессиональный (полное дублирование) [Лицензия]
Режиссер: Марк А.З. Диппе, Тадонг Пак / Mark A.Z. Dippé, Taedong Park--В ролях: Роб Шнайдер, Бизи Филиппс, Дрейк Белл, Фрэн Дрешер, Джейми Кеннеди, Донал Лог, Энди Дик, Мэттью Уиллиг, Фрэнки Джонас, Стефен Стэнтон--Описание: Пай живет на прекрасном коралловом Рифе, а по соседству обитают сотни злобных акул. Пай — единственный на Рифе, кто уверен, рано или поздно акулы атакуют и нужно быть готовым за себя постоять. Жители Рифа всегда мирно соседствовали с акулами и не планируют ни с кем воевать. Пай пытается организовать занятия по самообороне, но на них никто не приходит, и ему приходится изучать боевые искусства одному, под руководством мудрого черепаха Нерисса.Однажды в городе появляется веселый Ронни, который увлекает местных жителей в подготовку к водному празднику в жанре представлений Cirque De Soleil. Жители Рифа очарованы Ронни! Но никто не догадывается, что Ронни прислали акулы: его задача усыпить бдительность жителей и захватить Риф…-- --Качество видео:HDRip
Контейнер: AVI
Видео кодек: XviD
Аудио кодек: AC3
Видео: 720x384 (1.88:1), 23.976 fps, XviD build 50 ~2043 kbps avg, 0.31 bit/pixel
Аудио: 48 kHz, AC3 Dolby Digital, 3/2 (L,C,R,l,r) + LFE ch, ~384 kbps Dub [Лицензия]
Cубтитры: отсутствуют
Общее
Полное имя : F:\Torent 2\Rif.3D.2012.D.HDRip.[pirat.ca].avi
Формат : AVI
Формат/Информация : Audio Video Interleave
Размер файла : 1,37 Гбайт
Продолжительность : 1 ч. 20 м.
Общий поток : 2437 Кбит/сек
Программа кодирования : VirtualDubMod 1.5.10.2 (build 2540/release)
Библиотека кодирования : VirtualDubMod build 2540/release
Видео
Идентификатор : 0
Формат : MPEG-4 Visual
Профиль формата : Advanced [email protected]
Параметр BVOP формата : 2
Параметр QPel формата : Нет
Параметр GMC формата : Без точки перехода
Параметр матрицы формата : Default (MPEG)
Идентификатор кодека : XVID
Идентификатор кодека/Подсказка : XviD
Продолжительность : 1 ч. 20 м.
Битрейт : 2044 Кбит/сек
Ширина : 720 пикселей
Высота : 384 пикселя
Соотношение сторон : 1,85:1
Частота кадров : 23,976 кадра/сек
Цветовое пространство : YUV
Субдискретизация насыщенности : 4:2:0
Битовая глубина : 8 бит
Тип развёртки : Прогрессивная
Метод сжатия : С потерями
Бит/(Пиксели*Кадры) : 0.308
Размер потока : 1,15 Гбайт (84%)
Библиотека кодирования : XviD 1.2.1 (UTC 2008-12-04)
Аудио
Идентификатор : 1
Формат : AC-3
Формат/Информация : Audio Coding 3
Расширение режима : CM (complete main)
Параметр Endianness формата : Big
Идентификатор кодека : 2000
Продолжительность : 1 ч. 20 м.
Вид битрейта : Постоянный
Битрейт : 384 Кбит/сек
Каналы : 6 каналов
Расположение каналов : Front: L C R, Side: L R, LFE
Частота : 48,0 КГц
Битовая глубина : 16 бит
Метод сжатия : С потерями
Размер потока : 221 Мбайт (16%)
Выравнивание : Разделение по промежуткам
Продолжительность промежутка : 42 мс. (1,00 видеокадр)
Время предзагрузки промежутка : 500 мс.
Трейлер
Download / Скачать

Хотите скачать бесплатно? Зарегистрируйтесь на сайте (ссылка на регистрацию). Pirat.ca - самый быстрый торрент трекер в рунете!

Как скачивать  ·   Что такое торрент  ·   Рейтинг и ограничения

Пост 14-Июн-2013 13:41 (спустя 23 минуты)

Топик был перенесен из форума Мультфильмы (Трюм) в форум Новинки (HD|DVD|BD| TV|SAT|PDTV| - Rips)

ara1205
 

polozm

Легенда

Пост 14-Июн-2013 14:20 (спустя 1 час 2 минуты)

[Q] 

на кинопоиске пишут что тупняк.
IMDb: 3.00

_________________
mac mini -2.0 GHz Intel Core i7/ 8 GB DDR3. /Intel HD 3000(512mb)OS X 10.9 Mavericks
[Профиль]  [ЛС] 

bull271174

Флибустьер

Пост 14-Июн-2013 14:28 (спустя 8 минут)

[Q] 

[Профиль]  [ЛС] 

sergein

Корсар

Пост 14-Июн-2013 15:15 (спустя 46 минут)

[Q] 

[Профиль]  [ЛС] 

dimonpa

Гроза морей

Пост 14-Июн-2013 15:34 (спустя 19 минут)

[Q] 

[Профиль]  [ЛС] 

jesus-w

Корсар

Пост 14-Июн-2013 16:14 (спустя 39 минут)

[Q] 

[Профиль]  [ЛС] 

янка-сан

Гроза морей

Пост 14-Июн-2013 18:09 (спустя 1 час 54 минуты)

[Q] 

кто смотрел? это для малышей?
[Профиль]  [ЛС] 

Aleks44

Гроза морей

Пост 14-Июн-2013 23:58 (спустя 5 часов)

[Q] 

Не супер пупер но ребенку 6 лет понравилось, а там делайте свои выводы
[Профиль]  [ЛС] 

Dimon777

Шкипер

Пост 15-Июн-2013 06:28 (спустя 6 часов)

[Q] 

[Профиль]  [ЛС] 

vik238

Корсар

Пост 15-Июн-2013 18:53 (спустя 12 часов)

[Q] 

[Профиль]  [ЛС] 

SonicSlash

Флибустьер

Пост 17-Июн-2013 01:01 (спустя 1 день 6 часов)

[Q] 

Заценим, раз малому понравился

_________________
[Профиль]  [ЛС] 

Jek@

Легенда

Пост 17-Июн-2013 03:55 (спустя 2 часа 53 минуты)

[Q] 

.
[Профиль]  [ЛС] 

kirillkitov

Морской Волк

Пост 17-Июн-2013 08:53 (спустя 4 часа)

[Q] 

[Профиль]  [ЛС] 

Kier08

Лоцман

Пост 27-Июн-2013 23:57 (спустя 10 дней)

[Q] 

По мне так туповато. Но досмотрел до конца. Не советовал бы даже детям. Графика не на высоте. Да и суть не слишком поучительна.
[Профиль]  [ЛС] 
Показать сообщения:    
Ответить на тему

Текущее время: Сегодня 20:00

Часовой пояс: GMT + 4



Вы не можете начинать темы
Вы не можете отвечать на сообщения
Вы не можете редактировать свои сообщения
Вы не можете удалять свои сообщения
Вы не можете голосовать в опросах
Вы не можете прикреплять файлы к сообщениям
Вы не можете скачивать файлы

▼ Вниз