ML
     
  Уважаемый Гость!
Вы можете поддержать проект и зарегистрироваться у наших партнеров - онлайн-стратегия MyLands. При регистрации в игре Вы получите код, который сможете активировать после регистрации на pirat.ca и получить 1000 дублонов.

Ваш код:
c89b4b6523eaac3173e9a9c062ac1a19db575961
 
     

Приключения Маши в Стране Чудес / Yugo and Lala (Ван Юнфей / Wang Yunfei) [2012 г., мультфильм, фэнтези, приключения, WEBRip] Dub

Ответить на тему
 
Автор
Сообщение

Пост 18-Июн-2013 19:05

[Q] 

aleksey99

-Приключения Маши в Стране Чудес / Yugo and Lala-- Производство: Китай
Год выпуска: 2012 г.
Жанр: мультфильм, фэнтези, приключения
Продолжительность: 01:16:13--Мировая премьера: 10 августа 2012
Российская премьера: 18 апреля 2013, «Cinema Prestige»--Перевод: Профессиональный (полное дублирование)
Режиссер: Ван Юнфей / Wang Yunfei--В ролях: Лу Куи, Лью Лу, Менг Канлин--Описание: Однажды 10-летней Маше повстречалось странное существо по имени Ники — белый полулев-полутигр, появившийся на свет из волшебного камня. С этого момента с девочкой начали происходить невероятные чудеса. Она внезапно обнаружила, что понимает язык животных. А вскоре ее и Ники проглотило огромное Облако-Кит. А в очень-очень трудную минуту на помощь друзьям пришел Дядя Миша, огромный дикий медведь, на лицо ужасный, но добрый внутри. А еще они отправились в Рай Животных — фантастическую страну чудес, куда могут попасть только 99 счастливчиков — один раз в десять лет. Но людям туда вход заказан, потому что человек, пробывший там более трех дней, навсегда превратится в животное…-- --Качество видео:WEBRip
Контейнер: AVI
Видео кодек: XviD
Аудио кодек: MP3
Видео: 720x400 (1.80:1), 25 fps, XviD build 50 ~1224 kbps avg, 0.17 bit/pixel
Аудио: 48 kHz, MPEG Layer 3, 2 ch, ~128.00 kbps avg Dub
Cубтитры: отсутствуют
Общее
Полное имя : F:\Torent 2\Priklu4enie.Mashi.v.strane.4ydes.2012.WEBRip [pirat.ca].avi
Формат : AVI
Формат/Информация : Audio Video Interleave
Размер файла : 743 Мбайт
Продолжительность : 1 ч. 16 м.
Общий поток : 1363 Кбит/сек
Программа кодирования : VirtualDubMod 1.5.10.3 | www.virtualdub-fr.org || (build 2550/release)
Библиотека кодирования : VirtualDubMod build 2550/release
Видео
Идентификатор : 0
Формат : MPEG-4 Visual
Профиль формата : Advanced [email protected]
Параметр BVOP формата : 2
Параметр QPel формата : Нет
Параметр GMC формата : Без точки перехода
Параметр матрицы формата : Default (MPEG)
Идентификатор кодека : XVID
Идентификатор кодека/Подсказка : XviD
Продолжительность : 1 ч. 16 м.
Битрейт : 1225 Кбит/сек
Ширина : 720 пикселей
Высота : 400 пикселей
Соотношение сторон : 16:9
Частота кадров : 25,000 кадров/сек
Цветовое пространство : YUV
Субдискретизация насыщенности : 4:2:0
Битовая глубина : 8 бит
Тип развёртки : Прогрессивная
Метод сжатия : С потерями
Бит/(Пиксели*Кадры) : 0.170
Размер потока : 668 Мбайт (90%)
Библиотека кодирования : XviD 1.2.1 (UTC 2008-12-04)
Аудио
Идентификатор : 1
Формат : MPEG Audio
Версия формата : Version 1
Профиль формата : Layer 3
Идентификатор кодека : 55
Идентификатор кодека/Подсказка : MP3
Продолжительность : 1 ч. 16 м.
Вид битрейта : Постоянный
Битрейт : 128 Кбит/сек
Каналы : 2 канала
Частота : 48,0 КГц
Метод сжатия : С потерями
Размер потока : 69,8 Мбайт (9%)
Выравнивание : Соединение по промежуткам
Продолжительность промежутка : 40 мс. (1,00 видеокадр)
Время предзагрузки промежутка : 504 мс.
Библиотека кодирования : LAME3.98r
Настройки программы : -m s -V 4 -q 2 -lowpass 17 -b 128
Трейлер
Download / Скачать

Хотите скачать бесплатно? Зарегистрируйтесь на сайте (ссылка на регистрацию). Pirat.ca - самый быстрый торрент трекер в рунете!

Как скачивать  ·   Что такое торрент  ·   Рейтинг и ограничения

Пост 18-Июн-2013 19:22 (спустя 17 минут)

Топик был перенесен из форума Мультфильмы (Трюм) в форум Новинки (HD|DVD|BD| TV|SAT|PDTV| - Rips)

Jigsaw
 

dimonpa

Гроза морей

Пост 18-Июн-2013 19:28 (спустя 23 минуты)

[Q] 

[Профиль]  [ЛС] 

Раемия

Флибустьер

Пост 18-Июн-2013 20:14 (спустя 45 минут)

[Q] 

Ну че там? Кто-нибудь смотрел мульт? Стоит качать?

_________________
Любите кроликов!!!…и они отплатят вам тем же…
[Профиль]  [ЛС] 

ossipoff

Корсар

Пост 18-Июн-2013 22:40 (спустя 2 часа 25 минут)

[Q] 

[Профиль]  [ЛС] 

leonid.

Флибустьер

Пост 18-Июн-2013 23:37 (спустя 56 минут)

[Q] 

спасибо,будем посмотреть
[Профиль]  [ЛС] 

bull271174

Флибустьер

Пост 19-Июн-2013 07:42 (спустя 8 часов)

[Q] 

заценим
[Профиль]  [ЛС] 

Скоморох

Корсар

Пост 19-Июн-2013 16:36 (спустя 8 часов)

[Q] 

[Профиль]  [ЛС] 

Castiel987

Лоцман

Пост 23-Июн-2013 11:26 (спустя 3 дня)

[Q] 

Как можно было так перевести название?????
[Профиль]  [ЛС] 

Olegarkh73

Корсар

240

Пост 23-Июн-2013 12:58 (спустя 1 час 32 минуты)

[Q] 

[Профиль]  [ЛС] 

Demosthenes

Лоцман

Пост 23-Июн-2013 17:18 (спустя 4 часа)

[Q] 

Прочитал описание. Похоже сценаристы злоупотребляют наркотическими веществами.
[Профиль]  [ЛС] 

HellFire

Штурман

Пост 24-Июн-2013 09:45 (спустя 16 часов)

[Q] 

мульт детям до 10 подойдёт.
[Профиль]  [ЛС] 

sergein

Корсар

Пост 24-Июн-2013 10:46 (спустя 1 час)

[Q] 

[Профиль]  [ЛС] 

pozdnyakoff75

Гроза морей

2803

Пост 24-Июн-2013 12:02 (спустя 1 час 15 минут)

[Q] 

386607Прочитал описание. Похоже сценаристы злоупотребляют наркотическими веществами.
Посмотрел трейлер, действие происходит на фоне подозрительных грибов ai качать, не качать... йа боюсь )))))))))
[Профиль]  [ЛС] 

xxmoroz

Морской Волк

Пост 24-Июн-2013 15:18 (спустя 3 часа)

[Q] 

посмотрел минут 20... Думаю, своим дочкам я его не буду показывать... А взрослым - не интересно, не до тягивает до Миядзаки "Мои соседи - Тотторо", хотя и смахивает чем-то... Хотя имена переводчики хоть локализовали с их на наши, типа Маша ))))))))))
[Профиль]  [ЛС] 
Показать сообщения:    
Ответить на тему

Текущее время: Сегодня 22:27

Часовой пояс: GMT + 4



Вы не можете начинать темы
Вы не можете отвечать на сообщения
Вы не можете редактировать свои сообщения
Вы не можете удалять свои сообщения
Вы не можете голосовать в опросах
Вы не можете прикреплять файлы к сообщениям
Вы не можете скачивать файлы

▼ Вниз