ML
     
  Уважаемый Гость!
Вы можете поддержать проект и зарегистрироваться у наших партнеров - онлайн-стратегия MyLands. При регистрации в игре Вы получите код, который сможете активировать после регистрации на pirat.ca и получить 1000 дублонов.

Ваш код:
8dcb839cf1b47e56d6dc42d17f26b3e4822e9aee
 
     

Супермен: Непобежденный / Superman: Unbound (Джеймс Такер / James Tucker) [2013 г., мультфильм, боевик, приключения, HDRip] MVO [Лицензия] + Original (Eng)

Ответить на тему
 
Автор
Сообщение

Пост 20-Июн-2013 01:13

[Q] 

Gweg

-Супермен: Непобежденный / Superman: Unbound-- Производство: США / Warner Premiere, DC Entertainment, Warner Bros. Animation
Режиссер: Джеймс Такер / James Tucker
Жанр: мультфильм, боевик, приключения
Год выпуска: 2013 г.
Продолжительность: 01:15:15
Мировая премьера: 23 апреля 2013
Российская премьера: 23 мая 2013, «CP Дистрибуция»
Перевод: Профессиональный (многоголосый, закадровый) [Лицензия]
Оригинальный аудиопоток: английский
Роли озвучивали: Мэтт Бомер, Стана Катич, Джон Ноубл, Молли С. Куинн, Дидрих Бадер, Джейсон Бех, Фрэнсис Конрой, Йен Джеймс Корлетт, Мелисса Дисней, Александр Гоулд-Описание: Супермен узнает о безжалостном злодее Брейниаке, который захватил и уменьшил столицу его родной планеты Криптон, город Кандор. Вместе со своей непредсказуемой кузиной Супергел, Супермен должен защитить свою родную планету от все возрастающей мощи Брейниака.-Сэмпл



Качество видео: HDRip
Контейнер: AVI
Видео кодек: XviD
Аудио кодек: AC3
Видео: 720x400 (1.80:1), 23.976 fps, XviD build 50 ~1946 kbps avg, 0.28 bit/pixel
Аудио: 48 kHz, AC3 Dolby Digital, 2/0 (L,R) ch, ~192 kbps [RUS]
Аудио #2: 48 kHz, AC3 Dolby Digital, 3/2 (L,C,R,l,r) + LFE ch, ~448 kbps [ENG]
Cубтитры: отсутствуют
Формат : AVI
Формат/Информация : Audio Video Interleave
Размер файла : 1,37 Гбайт
Продолжительность : 1 ч. 15 м.
Общий поток : 2601 Кбит/сек
Название фильма : Supermen_Nepobezhdennii_2013.HDRip
Программа кодирования : VirtualDubMod 1.5.10.2 (build 2540/release)
Видео
Идентификатор : 0
Формат : MPEG-4 Visual
Профиль формата : Advanced [email protected]
Параметр BVOP формата : 1
Параметр QPel формата : Нет
Параметр GMC формата : Без точки перехода
Параметр матрицы формата : Выборочная
Идентификатор кодека : XVID
Идентификатор кодека/Подсказка : XviD
Продолжительность : 1 ч. 15 м.
Битрейт : 1947 Кбит/сек
Ширина : 720 пикселей
Высота : 400 пикселей
Соотношение сторон : 16:9
Частота кадров : 23,976 кадра/сек
Цветовое пространство : YUV
Субдискретизация насыщенности : 4:2:0
Битовая глубина : 8 бит
Тип развёртки : Прогрессивная
Метод сжатия : С потерями
Бит/(Пиксели*Кадры) : 0.282
Размер потока : 1,02 Гбайт (75%)
Библиотека кодирования : XviD 1.2.1 (UTC 2008-12-04)
Аудио #1
Идентификатор : 1
Формат : AC-3
Формат/Информация : Audio Coding 3
Расширение режима : CM (complete main)
Параметр Endianness формата : Big
Идентификатор кодека : 2000
Продолжительность : 1 ч. 15 м.
Вид битрейта : Постоянный
Битрейт : 192 Кбит/сек
Каналы : 2 канала
Расположение каналов : Front: L R
Частота : 48,0 КГц
Битовая глубина : 16 бит
Метод сжатия : С потерями
Размер потока : 103 Мбайт (7%)
Выравнивание : Разделение по промежуткам
Продолжительность промежутка : 42 мс. (1,00 видеокадр)
Время предзагрузки промежутка : 500 мс.
Аудио #2
Идентификатор : 2
Формат : AC-3
Формат/Информация : Audio Coding 3
Расширение режима : CM (complete main)
Параметр Endianness формата : Big
Идентификатор кодека : 2000
Продолжительность : 1 ч. 15 м.
Вид битрейта : Постоянный
Битрейт : 448 Кбит/сек
Каналы : 6 каналов
Расположение каналов : Front: L C R, Side: L R, LFE
Частота : 48,0 КГц
Битовая глубина : 16 бит
Метод сжатия : С потерями
Размер потока : 241 Мбайт (17%)
Выравнивание : Разделение по промежуткам
Продолжительность промежутка : 42 мс. (1,00 видеокадр)
Время предзагрузки промежутка : 500 мс.
Download / Скачать

Хотите скачать бесплатно? Зарегистрируйтесь на сайте (ссылка на регистрацию). Pirat.ca - самый быстрый торрент трекер в рунете!

Как скачивать  ·   Что такое торрент  ·   Рейтинг и ограничения

Пост 20-Июн-2013 06:57 (спустя 5 часов)

Топик был перенесен из форума Мультфильмы (Трюм) в форум Новинки (HD|DVD|BD| TV|SAT|PDTV| - Rips)

erchine
 

dimonpa

Гроза морей

Пост 20-Июн-2013 07:14 (спустя 6 часов)

[Q] 

[Профиль]  [ЛС] 

SvetaM

Гроза морей

238

Пост 20-Июн-2013 07:59 (спустя 45 минут)

[Q] 


_________________
[Профиль]  [ЛС] 

янка-сан

Гроза морей

Пост 20-Июн-2013 16:29 (спустя 8 часов)

[Q] 

[Профиль]  [ЛС] 

tu6enka

Флибустьер

Пост 20-Июн-2013 23:03 (спустя 6 часов)

[Q] 

[Профиль]  [ЛС] 

Silver

Морской Волк

Пост 20-Июн-2013 23:56 (спустя 52 минуты)

[Q] 

Вглядываясь в мимику ГГ на обложке так и хочется сказать... НЕ СРАААТЬ
[Профиль]  [ЛС] 

Silver

Морской Волк

Пост 20-Июн-2013 23:59 (спустя 3 минуты)

[Q] 

Не смог удержаться
[Профиль]  [ЛС] 

bull271174

Флибустьер

Пост 21-Июн-2013 07:31 (спустя 7 часов)

[Q] 

[Профиль]  [ЛС] 

Vorontsova.Olha

Морской Волк

Пост 21-Июн-2013 07:58 (спустя 27 минут)

[Q] 


_________________
[Профиль]  [ЛС] 

Aleks44

Гроза морей

Пост 21-Июн-2013 17:50 (спустя 9 часов)

[Q] 

Нормальный фантастический мульт
[Профиль]  [ЛС] 

Riper1

Шкипер

Пост 22-Июн-2013 00:26 (спустя 6 часов)

[Q] 

Класс!
[Профиль]  [ЛС] 

DHARMEEDONT

Флибустьер

Пост 22-Июн-2013 10:21 (спустя 9 часов)

[Q] 

[Профиль]  [ЛС] 

printoff

Пост 25-Июн-2013 12:37 (спустя 3 дня)

[Q] 

[Профиль]  [ЛС] 

sergLyghin

Корсар

162

Пост 29-Июн-2013 21:59 (спустя 4 дня)

[Q] 

[Профиль]  [ЛС] 

westrise

Морской Волк

Пост 01-Июл-2013 21:47 (спустя 1 день 23 часа)

[Q] 

рисовка ужасная,но смотреть буду,спасибо.
[Профиль]  [ЛС] 

luzanand

Лоцман

Пост 02-Июл-2013 17:00 (спустя 19 часов)

[Q] 

[Профиль]  [ЛС] 

max666689

Штурман

Пост 14-Июл-2013 22:45 (спустя 12 дней)

[Q] 


_________________
[Профиль]  [ЛС] 

kolking89

Морской Волк

Пост 27-Июл-2013 20:21 (спустя 12 дней)

[Q] 

Смотреть можно)
[Профиль]  [ЛС] 
Показать сообщения:    
Ответить на тему

Текущее время: Сегодня 04:17

Часовой пояс: GMT + 4



Вы не можете начинать темы
Вы не можете отвечать на сообщения
Вы не можете редактировать свои сообщения
Вы не можете удалять свои сообщения
Вы не можете голосовать в опросах
Вы не можете прикреплять файлы к сообщениям
Вы не можете скачивать файлы

▼ Вниз