ML
     
  Уважаемый Гость!
Вы можете поддержать проект и зарегистрироваться у наших партнеров - онлайн-стратегия MyLands. При регистрации в игре Вы получите код, который сможете активировать после регистрации на pirat.ca и получить 1000 дублонов.

Ваш код:
ca44e9295b9b8527ba1c339c20494f70782efea6
 
     

Поход динозавров / March of the Dinosaurs (Мэттью Томпсон \ Metyu Tompson) [2011 г., мультфильм, псевдо - документальный, драма., HDTVRip] VO

Ответить на тему
 
Автор
Сообщение

Пост 29-Окт-2011 09:43

[Q] 

Sirota

Легенда

Поход динозавров / March of the Dinosaurs Год выпуска: 2011
Страна: Великобритания.
Жанр: мультфильм, псевдо - документальный, драма.
Продолжительность: 01:29:00.
Перевод: Любительский (одноголосый)
Режиссер: Мэттью Томпсон \ Metyu Tompson
В ролях: Стивен Фрай.
Описание: Поход динозавров - это полуторачасовая история, рассказывающая о том, как несколько динозавров мелового периода мигрировали на сотни километров, к богатым пастбищам крайнего севера. В то же время, другие динозавры сделали север с его холодными, темными зимами своим постоянным домом. Фильм основан на реальных научных свидетельствах того, что некоторые динозавры мигрировали на огромные расстояния за пищей, пока другие постоянно проживали на севере Америки. В этой анимационной картине показывается жизнь динозавров более 70 миллионов лет назад. Главные герои - два молодых динозавра, Скар - молодой эдмонтозавр-вегетарианец, вылупившийся весной, и Патч - молодой плотоядный самец трудона. Как хищник, Патч все лето питался детенышами эдмонтозавров. К несчастью для него, его любимая еда собирается вскоре пересилиться на юг. Трудоны, вроде Патча, способны выжить зимой, и в фильме показывается его жизнь на жестоком севере. Выживет только сильнейший и они сражаются за остатки пищи в постоянной темноте. Подойдут любые средства...
Доп. информация: сценарий Мэттью Томпсон, Джаспер Джеймс
продюсер Mike Davis, Джаспер Джеймс
композитор Марк Расселл
монтаж Мэтт Платтс-Миллс
Качество: HDTVRip
Формат: AVI
Видео кодек: XviD
Аудио кодек: AC3
Видео: 720x400 (1.80:1), 23.976 fps, XviD MPEG-4 ~1870 kbps avg, 0.27 bit/pixel
Аудио: 48 kHz, AC3 Dolby Digital, 3/2 (L,C,R,l,r) + LFE ch, ~320.00 kbps avg
General
Format : AVI
Format/Info : Audio Video Interleave
File size : 1.37 GiB
Duration : 1h 29mn
Overall bit rate : 2 200 Kbps
Writing application : VirtualDubMod 1.5.10.2 (build 2540/release)
Writing library : VirtualDubMod build 2540/release
Video #0
ID : 0
Format : MPEG-4 Visual
Format profile : [email protected]
Format settings, BVOP : Yes
Format settings, QPel : No
Format settings, GMC : No warppoints
Format settings, Matrix : Default (MPEG)
Muxing mode : Packed bitstream
Codec ID : XVID
Codec ID/Hint : XviD
Duration : 1h 29mn
Bit rate : 1 870 Kbps
Width : 720 pixels
Height : 400 pixels
Display aspect ratio : 16:9
Frame rate : 23.976 fps
Resolution : 24 bits
Colorimetry : 4:2:0
Scan type : Progressive
Bits/(Pixel*Frame) : 0.271
Stream size : 1.16 GiB (85%)
Writing library : XviD 1.2.1 (UTC 2008-12-04)
Audio #1
ID : 1
Format : AC-3
Format/Info : Audio Coding 3
Codec ID : 2000
Duration : 1h 28mn
Bit rate mode : Constant
Bit rate : 320 Kbps
Channel(s) : 6 channels
Channel positions : Front: L C R, Surround: L R, LFE
Sampling rate : 48.0 KHz
Stream size : 204 MiB (15%)
Alignment : Split accross interleaves
Interleave, duration : 42 ms (1.00 video frame)
Interleave, preload duration : 500 ms







Download / Скачать

Хотите скачать бесплатно? Зарегистрируйтесь на сайте (ссылка на регистрацию). Pirat.ca - самый быстрый торрент трекер в рунете!

Как скачивать  ·   Что такое торрент  ·   Рейтинг и ограничения



Последний раз редактировалось: Sirota (2011-11-06 19:55), всего редактировалось 3 раз(а)

Пост 29-Окт-2011 18:54 (спустя 9 часов)

Топик был перенесен из форума Мультипликация в форум Новинки (BDRip/HDRip/DVDRip/DVDScr/ТС/SATRip/WP )

zyyx
 

Luzhok

Легенда

Пост 30-Окт-2011 00:12 (спустя 14 часов)

[Q] 

поддержу
Sirota, спасибо
[Профиль]  [ЛС] 

polozm

Легенда

Пост 30-Окт-2011 10:49 (спустя 10 часов)

[Q] 

Спасибо большое

_________________
mac mini -2.0 GHz Intel Core i7/ 8 GB DDR3. /Intel HD 3000(512mb)OS X 10.9 Mavericks
[Профиль]  [ЛС] 

XAPOH

Гроза морей

Пост 30-Окт-2011 19:18 (спустя 8 часов)

[Q] 

Качаем, спасибо!

_________________

<<<Dolus an virtus quis in hoste requirat?>>>
Intel Core i7 2600, 16Gb Ram, GTX 670, SSD.
PS4.
[Профиль]  [ЛС] 

kubrik

Шкипер

Пост 31-Окт-2011 15:30 (спустя 20 часов)

[Q] 

ура! назад в прошлое... спасибо

_________________
до чего дошел прогресс...
[Профиль]  [ЛС] 

Пост 08-Дек-2011 11:25 (спустя 1 месяц 7 дней)

Топик был перенесен из форума Новинки (HD|DVD|BD|TV|SAT|PDTV| - Rips) в форум Зарубежные полнометражные мультфильмы

oliks
 

tzuk

Лоцман

Пост 08-Дек-2011 19:04 (спустя 1 месяц 8 дней)

[Q] 

отношусь к таким фильмам с огромным интересом.
особенно после просмотра(ДИНОЗАВР)
огромное СПАСИБО!!!! bi bp
[Профиль]  [ЛС] 

$МАКС$

Штурман

Пост 02-Мар-2012 07:46 (спустя 2 месяца 24 дня)

[Q] 

[Профиль]  [ЛС] 

CHARLI2236

1089

Пост 30-Окт-2012 13:24 (спустя 7 месяцев 28 дней)

[Q] 

спасибо

_________________
[Профиль]  [ЛС] 
Показать сообщения:    
Ответить на тему

Текущее время: Сегодня 16:17

Часовой пояс: GMT + 4



Вы не можете начинать темы
Вы не можете отвечать на сообщения
Вы не можете редактировать свои сообщения
Вы не можете удалять свои сообщения
Вы не можете голосовать в опросах
Вы не можете прикреплять файлы к сообщениям
Вы не можете скачивать файлы

▼ Вниз