ML
     
  Уважаемый Гость!
Вы можете поддержать проект и зарегистрироваться у наших партнеров - онлайн-стратегия MyLands. При регистрации в игре Вы получите код, который сможете активировать после регистрации на pirat.ca и получить 1000 дублонов.

Ваш код:
9cfe162481db953a6549f32179d7b3900b8b8643
 
     

Лига справедливости: Парадокс источника конфликта / Justice League: The Flashpoint Paradox (Джей Олива / Jay Oliva) [2013 г., боевик, мультфильм, приключения, фантастика, фэнтези, DVDRip] VO [Hronos] + Original (Eng)

Ответить на тему
 
Автор
Сообщение

Пост 18-Июл-2013 19:47

[Q] 

aleksey99

-Лига справедливости: Парадокс источника конфликта-Justice League: The Flashpoint Paradox-- Производство: США / DC Entertainment, Warner Bros. Animation, Warner Bros. Home Entertainment Group
Год выпуска: 2013 г.
Жанр: боевик, мультфильм, приключения, фантастика, фэнтези
Продолжительность: 01:21:15--Мировая премьера: 30 июля 2013--Перевод: Любительский (одноголосый, закадровый) [Hronos]
Оригинальный аудиопоток: английский-Режиссер: Джей Олива / Jay Oliva--В ролях: Майкл Б. Джордан, Нэйтан Филлион, Кэри Элвис, Рон Перлман, Кевин МакКидд, Си Томас Хауэлл, Дана Дилэйни, Джастин Чэмберс, Дэнни Хьюстон, Кевин Конрой--Описание: Миллионы людей в нашем мире ссорятся по тем или иным причинам. Кто-то умеет мирно разрешать конфликты, кто-то же привык решать все проблемы «на кулаках». Но мало кто верит в существование истинной справедливости, однако команда супергероев всегда готова подтвердить, что справедливость все же, существует. Отважные спасатели бросаются на помощь к тем, кто пострадал от незаконных или нечестных действий злодеев, они очищают мир от негодяев, делая его более добрым и светлым.-- --Качество видео: DVDRip
Контейнер: AVI
Видео кодек: XviD
Аудио кодек: AC3
Видео: 720x400 (1.80:1), 23.976 fps, XviD build 50 ~1887 kbps avg, 0.27 bit/pixel
Аудио 1: 48 kHz, AC3 Dolby Digital, 2/0 (L,R) ch, ~256 kbps VO [Hronos]
Аудио 2: 48 kHz, AC3 Dolby Digital, 2/0 (L,R) ch, ~256 kbps Original (Eng)
Cубтитры: отсутствуют
Общее
Полное имя : H:\Torrent2\Liga.spravedlivosti.paradoks.2013.L1.DVDRip.1400Mb[pirat.ca].avi
Формат : AVI
Формат/Информация : Audio Video Interleave
Размер файла : 1,37 Гбайт
Продолжительность : 1 ч. 21 м.
Общий поток : 2414 Кбит/сек
Программа кодирования : VirtualDubMod 1.5.10.2 (build 2540/release)
Библиотека кодирования : VirtualDubMod build 2540/release
Видео
Идентификатор : 0
Формат : MPEG-4 Visual
Профиль формата : Advanced [email protected]
Параметр BVOP формата : 2
Параметр QPel формата : Нет
Параметр GMC формата : Без точки перехода
Параметр матрицы формата : Default (MPEG)
Идентификатор кодека : XVID
Идентификатор кодека/Подсказка : XviD
Продолжительность : 1 ч. 21 м.
Битрейт : 1888 Кбит/сек
Ширина : 720 пикселей
Высота : 400 пикселей
Соотношение сторон : 16:9
Частота кадров : 23,976 кадра/сек
Цветовое пространство : YUV
Субдискретизация насыщенности : 4:2:0
Битовая глубина : 8 бит
Тип развёртки : Прогрессивная
Метод сжатия : С потерями
Бит/(Пиксели*Кадры) : 0.273
Размер потока : 1,07 Гбайт (78%)
Библиотека кодирования : XviD 1.2.1 (UTC 2008-12-04)
Аудио #1
Идентификатор : 1
Формат : AC-3
Формат/Информация : Audio Coding 3
Расширение режима : CM (complete main)
Параметр Endianness формата : Big
Идентификатор кодека : 2000
Продолжительность : 1 ч. 21 м.
Вид битрейта : Постоянный
Битрейт : 256 Кбит/сек
Каналы : 2 канала
Расположение каналов : Front: L R
Частота : 48,0 КГц
Битовая глубина : 16 бит
Метод сжатия : С потерями
Размер потока : 149 Мбайт (11%)
Выравнивание : Разделение по промежуткам
Продолжительность промежутка : 42 мс. (1,00 видеокадр)
Время предзагрузки промежутка : 500 мс.
Аудио #2
Идентификатор : 2
Формат : AC-3
Формат/Информация : Audio Coding 3
Расширение режима : CM (complete main)
Параметр Endianness формата : Big
Идентификатор кодека : 2000
Продолжительность : 1 ч. 21 м.
Вид битрейта : Постоянный
Битрейт : 256 Кбит/сек
Каналы : 2 канала
Расположение каналов : Front: L R
Частота : 48,0 КГц
Битовая глубина : 16 бит
Метод сжатия : С потерями
Размер потока : 149 Мбайт (11%)
Выравнивание : Разделение по промежуткам
Продолжительность промежутка : 42 мс. (1,00 видеокадр)
Время предзагрузки промежутка : 500 мс.
Трейлер
Download / Скачать

Хотите скачать бесплатно? Зарегистрируйтесь на сайте (ссылка на регистрацию). Pirat.ca - самый быстрый торрент трекер в рунете!

Как скачивать  ·   Что такое торрент  ·   Рейтинг и ограничения

Пост 18-Июл-2013 21:18 (спустя 1 час 31 минута)

Топик был перенесен из форума Мультфильмы (Трюм) в форум Новинки (HD|DVD|BD| TV|SAT|PDTV| - Rips)

Jigsaw
 

ШокоЛоко

Морской Волк

2

Пост 18-Июл-2013 21:41 (спустя 1 час 54 минуты)

[Q] 

заценим
[Профиль]  [ЛС] 

ШокоЛоко

Морской Волк

2

Пост 18-Июл-2013 22:25 (спустя 43 минуты)

[Q] 

мне понравился мульт
[Профиль]  [ЛС] 

roobocop2020

Лоцман

Пост 18-Июл-2013 23:08 (спустя 42 минуты)

[Q] 

не хочу одноголосный смотреть)
[Профиль]  [ЛС] 

dragan123

Морской Волк

Пост 19-Июл-2013 12:34 (спустя 13 часов)

[Q] 

Спасибки Заценим
[Профиль]  [ЛС] 

sanktuum

Шкипер

Пост 19-Июл-2013 12:42 (спустя 8 минут)

[Q] 

прикольный мульт
[Профиль]  [ЛС] 

Aleks44

Гроза морей

Пост 19-Июл-2013 16:12 (спустя 3 часа)

[Q] 

Нормальный одноголосный дубляж смотрительно
[Профиль]  [ЛС] 

sorvigolova

Корсар

799

Пост 19-Июл-2013 22:35 (спустя 6 часов)

[Q] 

Обожаю все мульты про супов)))))
[Профиль]  [ЛС] 

SaNyABA89

Морской Волк

Пост 24-Июл-2013 13:00 (спустя 4 дня)

[Q] 

Отличный мульт, даже одноголосый перевод не напрягает.

_________________
Талантам нужно помогать, бездарности пробьются сами!
[Профиль]  [ЛС] 

Voland57

Корсар

Пост 28-Июл-2013 18:48 (спустя 4 дня)

[Q] 

Супер! Всем качать!!! !COOL!
[Профиль]  [ЛС] 

zloiaspirant

Корсар

Пост 03-Авг-2013 08:18 (спустя 5 дней)

[Q] 

Автору респект!!!
[Профиль]  [ЛС] 

anonymoys

Гроза морей

901

Пост 03-Авг-2013 14:48 (спустя 6 часов)

[Q] 

Всем качать!!!
[Профиль]  [ЛС] 

aleks77l

Морской Волк

Пост 04-Авг-2013 12:58 (спустя 22 часа)

[Q] 

!COOL! Всем качать!!! Супер!
[Профиль]  [ЛС] 

Martini_ice

Морской Волк

Пост 04-Авг-2013 18:52 (спустя 5 часов)

[Q] 

!COOL! Спасибо!!!
[Профиль]  [ЛС] 

SPAUNex

Шкипер

Пост 27-Янв-2015 03:16 (спустя 1 год 5 месяцев)

[Q] 

АГОНЬ Просто АГОНЬ

_________________
[Профиль]  [ЛС] 
Показать сообщения:    
Ответить на тему

Текущее время: Сегодня 06:06

Часовой пояс: GMT + 4



Вы не можете начинать темы
Вы не можете отвечать на сообщения
Вы не можете редактировать свои сообщения
Вы не можете удалять свои сообщения
Вы не можете голосовать в опросах
Вы не можете прикреплять файлы к сообщениям
Вы не можете скачивать файлы

▼ Вниз