ML
     
  Уважаемый Гость!
Вы можете поддержать проект и зарегистрироваться у наших партнеров - онлайн-стратегия MyLands. При регистрации в игре Вы получите код, который сможете активировать после регистрации на pirat.ca и получить 1000 дублонов.

Ваш код:
8dcb839cf1b47e56d6dc42d17f26b3e4822e9aee
 
     

Сарила: Затерянная земля / The legend of Sarila / La légende de Sarila (Нэнси Севард / Nancy Florence Savard) [2013 г., мультфильм, приключения, DVDRip] Dub [Лицензия]

Ответить на тему
 
Автор
Сообщение

Пост 19-Июл-2013 11:48

[Q] 

aleksey99

-Сарила: Затерянная земля / The legend of Sarila / La légende de Sarila- -Производство: Канада, CarpeDiem Film & TV, Productions 10th Ave
Год выпуска: 2013 г.
Жанр: мультфильм, приключения
Продолжительность: 01:18:14-Мировая премьера: 22 февраля 2013
Российская премьера: 4 июля 2013, «Люксор»
Релиз на DVD: 23 июля 2013, «Парадиз / Активижен»-Перевод: Профессиональный (полное дублирование) [Лицензия]-Режиссер: Нэнси Севард / Nancy Florence Savard-В ролях: Кристофер Пламмер, Рашель Лефевр, Дастин Миллиган, Тим Розон, Женевьев Бюжо, Джеймс Кидни, Тайрон Бенскин, Анджела Галуппо, Илайс Туфексис, Роберт Хигден-Описание: Далеко на севере лагерь эскимосов-кочевников находится под угрозой голода и вымирания. Шаман племени, Крулик, не в силах помочь, и людей охватывает отчаяние. Некоторые из них обретают надежду в древней легенде о далёкой Сариле — земле, спрятанной среди ледников, в которой не существует холода и голода. Легенда гласит, что только те, кто чист сердцем, могут попасть в это священное место. Трое молодых людей соглашаются отправиться на поиски Сарилы, чтобы спасти своё племя. Среди них — юный Маркусси, обладающий способностями шамана. Предчувствуя, что его власть находится под угрозой, старый шаман пытается избавиться от своего соперника с помощью сил зла, пытаясь помешать миссии трёх молодых героев. Постепенно Маркусси понимает, что он должен не только найти Сарилу, но и разоблачить предателя Крулика…- -Качество видео: DVDRip
Контейнер: AVI
Видео кодек: XviD
Аудио кодек: AC3
Видео: 720x400 (1.80:1), 25 fps, XviD build 50 ~2044 kbps avg, 0.28 bit/pixel
Аудио: 48 kHz, AC3 Dolby Digital, 3/2 (L,C,R,l,r) + LFE ch, ~448 kbps
Cубтитры: Отсутствуют
Общее
Полное имя : H:\Torrent2\Sarila.2013.D.DVDRip[pirat.ca].avi
Формат : AVI
Формат/Информация : Audio Video Interleave
Размер файла : 1,37 Гбайт
Продолжительность : 1 ч. 18 м.
Общий поток : 2503 Кбит/сек
Программа кодирования : VirtualDubMod 1.5.10.3 | www.virtualdub-fr.org || (build 2550/release)
Библиотека кодирования : VirtualDubMod build 2550/release
Видео
Идентификатор : 0
Формат : MPEG-4 Visual
Профиль формата : Advanced [email protected]
Параметр BVOP формата : 2
Параметр QPel формата : Нет
Параметр GMC формата : Без точки перехода
Параметр матрицы формата : Default (MPEG)
Идентификатор кодека : XVID
Идентификатор кодека/Подсказка : XviD
Продолжительность : 1 ч. 18 м.
Битрейт : 2045 Кбит/сек
Ширина : 720 пикселей
Высота : 400 пикселей
Соотношение сторон : 16:9
Частота кадров : 25,000 кадров/сек
Цветовое пространство : YUV
Субдискретизация насыщенности : 4:2:0
Битовая глубина : 8 бит
Тип развёртки : Прогрессивная
Метод сжатия : С потерями
Бит/(Пиксели*Кадры) : 0.284
Размер потока : 1,12 Гбайт (82%)
Библиотека кодирования : XviD 1.2.1 (UTC 2008-12-04)
Аудио
Идентификатор : 1
Формат : AC-3
Формат/Информация : Audio Coding 3
Расширение режима : CM (complete main)
Параметр Endianness формата : Big
Идентификатор кодека : 2000
Продолжительность : 1 ч. 18 м.
Вид битрейта : Постоянный
Битрейт : 448 Кбит/сек
Каналы : 6 каналов
Расположение каналов : Front: L C R, Side: L R, LFE
Частота : 48,0 КГц
Битовая глубина : 16 бит
Метод сжатия : С потерями
Размер потока : 251 Мбайт (18%)
Выравнивание : Разделение по промежуткам
Продолжительность промежутка : 40 мс. (1,00 видеокадр)
Время предзагрузки промежутка : 500 мс.
Трейлер
Download / Скачать

Хотите скачать бесплатно? Зарегистрируйтесь на сайте (ссылка на регистрацию). Pirat.ca - самый быстрый торрент трекер в рунете!

Как скачивать  ·   Что такое торрент  ·   Рейтинг и ограничения

Alexe10

Гроза морей

36

Пост 19-Июл-2013 13:47 (спустя 1 час 58 минут)

[Q] 

Оперативно!
[Профиль]  [ЛС] 

Пост 19-Июл-2013 14:18 (спустя 30 минут)

Топик был перенесен из форума Мультфильмы (Трюм) в форум Новинки (HD|DVD|BD| TV|SAT|PDTV| - Rips)

ara1205
 

plistikanatolii

Морской Волк

Пост 19-Июл-2013 14:32 (спустя 45 минут)

[Q] 

спасибо детям понравится
[Профиль]  [ЛС] 

Ветер Юг

Лоцман

Пост 19-Июл-2013 16:43 (спустя 2 часа 10 минут)

[Q] 

Новый мультик сыну всегда в радость)
[Профиль]  [ЛС] 

kinstintin

Гроза морей

Пост 19-Июл-2013 21:57 (спустя 5 часов)

[Q] 

aa bf
[Профиль]  [ЛС] 

rad71

Штурман

Пост 19-Июл-2013 22:01 (спустя 3 минуты)

[Q] 

у меня дочь как раз гостит, надеюсь ей понравится!
[Профиль]  [ЛС] 

StenST

Морской Волк

Пост 19-Июл-2013 22:31 (спустя 29 минут)

[Q] 

А я сам посмотрю - как маленькое дите!
[Профиль]  [ЛС] 

bull271174

Флибустьер

Пост 20-Июл-2013 12:52 (спустя 14 часов)

[Q] 

[Профиль]  [ЛС] 

Serega89

Шкипер

Пост 20-Июл-2013 17:25 (спустя 4 часа)

[Q] 

[Профиль]  [ЛС] 

андрей7326

Штурман

Пост 21-Июл-2013 00:41 (спустя 7 часов)

[Q] 

мульт хорош , посмотреть стоит ВЗРОСЛЫМ , мелкие думаю не поймут , лет 13-14 да , но им сейчас интересней другое .... так что леди и джентельмены мульт для нас !
[Профиль]  [ЛС] 

TinKode

Штурман

Пост 21-Июл-2013 18:12 (спустя 17 часов)

[Q] 

[Профиль]  [ЛС] 

янка-сан

Гроза морей

Пост 22-Июл-2013 02:10 (спустя 7 часов)

[Q] 

[Профиль]  [ЛС] 

Sector_X

Гроза морей

309

Пост 22-Июл-2013 11:08 (спустя 8 часов)

[Q] 


_________________
[Профиль]  [ЛС] 

SaNyABA89

Морской Волк

Пост 24-Июл-2013 13:01 (спустя 2 дня 1 час)

[Q] 

Спасибо

_________________
Талантам нужно помогать, бездарности пробьются сами!
[Профиль]  [ЛС] 

Jek@

Легенда

Пост 29-Июл-2013 07:39 (спустя 4 дня)

[Q] 

Спасибо!!! .
[Профиль]  [ЛС] 

anonymoys

Гроза морей

901

Пост 29-Июл-2013 08:30 (спустя 50 минут)

[Q] 

Всем качать!!! Супер! Автору респект!!!
[Профиль]  [ЛС] 

Артур

Шкипер

Пост 29-Июл-2013 12:59 (спустя 4 часа)

[Q] 

Автору респект!!!
[Профиль]  [ЛС] 

aleks77l

Морской Волк

Пост 04-Авг-2013 13:12 (спустя 6 дней)

[Q] 

Супер! Спасибо!!! Пиратка рулез!!! Лови бочку
[Профиль]  [ЛС] 

лысый 9999

Морской Волк

Пост 04-Авг-2013 15:35 (спустя 2 часа 22 минуты)

[Q] 

Спасибо!!! Лови бочку
[Профиль]  [ЛС] 

vik238

Корсар

Пост 06-Авг-2013 19:59 (спустя 2 дня 4 часа)

[Q] 

Раздающему респект! Автору респект!!! Спасибо!!!
[Профиль]  [ЛС] 

СерКат

Корсар

Пост 06-Дек-2013 19:30 (спустя 3 месяца 30 дней)

[Q] 

кто кому , а я жене качаю aw
Добавлено спустя 8 минут 25 секунд:
спасибо,за быструю раздачу
[Профиль]  [ЛС] 

mich76

Шкипер

Пост 07-Дек-2013 09:04 (спустя 13 часов)

[Q] 

Спасибо!!! Супер!
[Профиль]  [ЛС] 

vesna_7777

Корсар

Пост 28-Дек-2013 17:38 (спустя 21 день)

[Q] 

Спасибо!!! Супер!
[Профиль]  [ЛС] 
Показать сообщения:    
Ответить на тему

Текущее время: Сегодня 04:18

Часовой пояс: GMT + 4



Вы не можете начинать темы
Вы не можете отвечать на сообщения
Вы не можете редактировать свои сообщения
Вы не можете удалять свои сообщения
Вы не можете голосовать в опросах
Вы не можете прикреплять файлы к сообщениям
Вы не можете скачивать файлы

▼ Вниз