ML
     
  Уважаемый Гость!
Вы можете поддержать проект и зарегистрироваться у наших партнеров - онлайн-стратегия MyLands. При регистрации в игре Вы получите код, который сможете активировать после регистрации на pirat.ca и получить 1000 дублонов.

Ваш код:
ee1288b6f7c09d9d2cb2a0f972aba30460ce9333
 
     

Железяки / Yak (Прапас Чолсаранонт / Prapas Cholsaranont) [2012 г., мультфильм, DVDRip] Dub [Лицензия]

Ответить на тему
 
Автор
Сообщение

Пост 26-Июл-2013 23:27

[Q] 

aleksey99

-Железяки / Yak--«Дружба без памяти»- -Производство: Таиланд, Work Point Entertainment
Год выпуска: 2012 г.
Жанр: мультфильм
Продолжительность: 01:33:08-Мировая премьера: 4 октября 2012
Российская премьера: 27 июня 2013, «West»
Релиз на DVD: 1 августа 2013, «CD Land»-Перевод: Профессиональный (полное дублирование) [Лицензия]-Режиссер: Прапас Чолсаранонт / Prapas Cholsaranont-В ролях: Баврибун Чанреанг, Сантисук Промсири, Удом Таепханит, Керрисак Удомнак-Описание: Вернувшись к жизни после долгих лет сна, роботы Здоровяк и Микро с удивлением обнаруживают, что их тела прочно соединены крепкой цепью. Увы, время стерло им память, и теперь они вынуждены вдвоем отправиться в трудное и опасное путешествие, чтобы вновь обрести свободу. Долгие странствия, наполненные удивительными приключениями, трудными испытаниями и великими подвигами, превращают наших героев в настоящих друзей. Но их дружбе предстоит пройти еще одно, самое главное испытание…- -Качество видео: DVDRip
Контейнер: AVI
Видео кодек: XviD
Аудио кодек: AC3
Видео: 720x384 (1.88:1), 25 fps, XviD build 50 ~1835 kbps avg, 0.27 bit/pixel
Аудио: 48 kHz, AC3 Dolby Digital, 3/2 (L,C,R,l,r) + LFE ch, ~256 kbps
Cубтитры: Отсутствуют
Общее
Полное имя : H:\Torrent2\Jelejakil.2012.D.DVDRip.1400MB[pirat.ca].avi
Формат : AVI
Формат/Информация : Audio Video Interleave
Размер файла : 1,37 Гбайт
Продолжительность : 1 ч. 33 м.
Общий поток : 2102 Кбит/сек
Программа кодирования : VirtualDubMod 1.5.10.2 (build 2540/release)
Видео
Идентификатор : 0
Формат : MPEG-4 Visual
Профиль формата : Advanced [email protected]
Параметр BVOP формата : 2
Параметр QPel формата : Нет
Параметр GMC формата : Без точки перехода
Параметр матрицы формата : Default (MPEG)
Идентификатор кодека : XVID
Идентификатор кодека/Подсказка : XviD
Продолжительность : 1 ч. 33 м.
Битрейт : 1836 Кбит/сек
Ширина : 720 пикселей
Высота : 384 пикселя
Соотношение сторон : 1,85:1
Частота кадров : 25,000 кадров/сек
Цветовое пространство : YUV
Субдискретизация насыщенности : 4:2:0
Битовая глубина : 8 бит
Тип развёртки : Прогрессивная
Метод сжатия : С потерями
Бит/(Пиксели*Кадры) : 0.266
Размер потока : 1,19 Гбайт (87%)
Библиотека кодирования : XviD 1.2.1 (UTC 2008-12-04)
Аудио
Идентификатор : 1
Формат : AC-3
Формат/Информация : Audio Coding 3
Расширение режима : CM (complete main)
Параметр Endianness формата : Big
Идентификатор кодека : 2000
Продолжительность : 1 ч. 33 м.
Вид битрейта : Постоянный
Битрейт : 256 Кбит/сек
Каналы : 6 каналов
Расположение каналов : Front: L C R, Side: L R, LFE
Частота : 48,0 КГц
Битовая глубина : 16 бит
Метод сжатия : С потерями
Размер потока : 171 Мбайт (12%)
Выравнивание : Разделение по промежуткам
Продолжительность промежутка : 40 мс. (1,00 видеокадр)
Время предзагрузки промежутка : 500 мс.
Трейлер
Download / Скачать

Хотите скачать бесплатно? Зарегистрируйтесь на сайте (ссылка на регистрацию). Pirat.ca - самый быстрый торрент трекер в рунете!

Как скачивать  ·   Что такое торрент  ·   Рейтинг и ограничения

Пост 27-Июл-2013 07:51 (спустя 8 часов)

Топик был перенесен из форума Мультфильмы (Трюм) в форум Новинки (HD|DVD|BD| TV|SAT|PDTV| - Rips)

erchine
 

baltimor30

Морской Волк

Пост 27-Июл-2013 11:49 (спустя 12 часов)

[Q] 

Оперативненько, спасибо)
[Профиль]  [ЛС] 

TinKode

Штурман

Пост 27-Июл-2013 12:30 (спустя 40 минут)

[Q] 

Немного детский, но очень хороший мультик!
[Профиль]  [ЛС] 

Юлия19

Морской Волк

375

Пост 27-Июл-2013 17:40 (спустя 5 часов)

[Q] 

[Профиль]  [ЛС] 

Sector_X

Гроза морей

309

Пост 27-Июл-2013 18:31 (спустя 51 минута)

[Q] 


_________________
[Профиль]  [ЛС] 

Артур

Шкипер

Пост 27-Июл-2013 21:20 (спустя 2 часа 48 минут)

[Q] 

[Профиль]  [ЛС] 

Serega89

Шкипер

Пост 28-Июл-2013 08:31 (спустя 11 часов)

[Q] 

Спасибо!!!
[Профиль]  [ЛС] 

aqwes

Лоцман

Пост 28-Июл-2013 10:10 (спустя 1 час 39 минут)

[Q] 

Всем качать!!!
[Профиль]  [ЛС] 

Роман1412

Морской Волк

Пост 28-Июл-2013 12:46 (спустя 2 часа 36 минут)

[Q] 

Пиратка рулез!!!
[Профиль]  [ЛС] 

MikeB

Гроза морей

Пост 28-Июл-2013 12:54 (спустя 7 минут)

[Q] 

Спасибо!!!
[Профиль]  [ЛС] 

Voland57

Корсар

Пост 28-Июл-2013 18:36 (спустя 5 часов)

[Q] 

Супер! !COOL!
[Профиль]  [ЛС] 

Stalker_29

Корсар

Пост 28-Июл-2013 19:30 (спустя 53 минуты)

[Q] 

Спасибо!!!
[Профиль]  [ЛС] 

clark

Морской Волк

Пост 28-Июл-2013 23:05 (спустя 3 часа)

[Q] 

spasibo

_________________
Последним смеётся тот, кто стреляет первым.
[Профиль]  [ЛС] 

maksssa

Шкипер

20

Пост 29-Июл-2013 00:10 (спустя 1 час 4 минуты)

[Q] 

На любителя Спасибо за раздачу, но мультик скучноват.
[Профиль]  [ЛС] 

ALES_LVOV

Морской Волк

Пост 29-Июл-2013 00:34 (спустя 24 минуты)

[Q] 

Автору респект!!!
[Профиль]  [ЛС] 

kaznachet

Лоцман

Пост 29-Июл-2013 01:22 (спустя 47 минут)

[Q] 

!COOL!
[Профиль]  [ЛС] 

Affect

Шкипер

Пост 29-Июл-2013 05:53 (спустя 4 часа)

[Q] 

az
[Профиль]  [ЛС] 

Jek@

Легенда

Пост 29-Июл-2013 07:34 (спустя 1 час 41 минута)

[Q] 

Спасибо!!!
[Профиль]  [ЛС] 

anonymoys

Гроза морей

901

Пост 29-Июл-2013 08:33 (спустя 58 минут)

[Q] 

Супер!
[Профиль]  [ЛС] 

aleks77l

Морской Волк

Пост 04-Авг-2013 13:14 (спустя 6 дней)

[Q] 

Вы лучшие! Автору респект!!! Лови бочку
[Профиль]  [ЛС] 

keppi

Морской Волк

1896

Пост 04-Авг-2013 17:14 (спустя 4 часа)

[Q] 

Лови бочку eb

_________________
Если нет своей цели в жизни, то будешь работать на того, у кого она есть.
[Профиль]  [ЛС] 

Albina66ru

Шкипер

Пост 04-Авг-2013 18:05 (спустя 51 минута)

[Q] 

Автору респект!!! норм
[Профиль]  [ЛС] 

viji

Корсар

Пост 05-Авг-2013 19:42 (спустя 1 день 1 час)

[Q] 

Странный и чудной такой мультик про забавных роботов в какой-то своей нереальной реальности. Я бы даже сказал более: мульт сумбурный и где-то даже наркоманский, но одновременно добрый и поучительный. Посмотреть конечно в любом случае стоит, он возможно не вызовет восторг, но позабавит это точно.
[Профиль]  [ЛС] 

HukoJla

Штурман

98

Пост 05-Авг-2013 23:20 (спустя 3 часа)

[Q] 

Спасибо!!! Автору респект!!! Пиратка рулит! нормал мульт кстате!
[Профиль]  [ЛС] 

Antarres

Легенда

Пост 07-Авг-2013 12:50 (спустя 1 день 13 часов)

[Q] 

Thanks !

_________________
[Профиль]  [ЛС] 

Aртем_Aлексеевич

Штурман

Пост 03-Янв-2014 13:10 (спустя 4 месяца 27 дней)

[Q] 

разок можно глянуть
[Профиль]  [ЛС] 

stas-burn

Корсар

Пост 17-Фев-2014 09:16 (спустя 1 месяц 13 дней)

[Q] 

Спасибо!!! Лови бочку
[Профиль]  [ЛС] 

Бендор

Морской Волк

Пост 12-Мар-2014 10:38 (спустя 23 дня)

[Q] 

долго его искал хорш качестве cy
[Профиль]  [ЛС] 
Показать сообщения:    
Ответить на тему

Текущее время: Сегодня 18:18

Часовой пояс: GMT + 4



Вы не можете начинать темы
Вы не можете отвечать на сообщения
Вы не можете редактировать свои сообщения
Вы не можете удалять свои сообщения
Вы не можете голосовать в опросах
Вы не можете прикреплять файлы к сообщениям
Вы не можете скачивать файлы

▼ Вниз