ML
     
  Уважаемый Гость!
Вы можете поддержать проект и зарегистрироваться у наших партнеров - онлайн-стратегия MyLands. При регистрации в игре Вы получите код, который сможете активировать после регистрации на pirat.ca и получить 1000 дублонов.

Ваш код:
a01a592a88af5f9996a6d1baec61b18a1769954d
 
     

Лига справедливости: Парадокс источника конфликта / Justice League: The Flashpoint Paradox (Джей Олива / Jay Oliva) [2013 г., боевик, мультфильм, приключения, фантастика, фэнтези, DVDRip] Dub [DuBDrag Project] + Original (Eng)

Ответить на тему
 
Автор
Сообщение

Пост 09-Авг-2013 14:07

[Q] 

aleksey99

-Лига справедливости: Парадокс источника конфликта-Justice League: The Flashpoint Paradox-- Производство: США / DC Entertainment, Warner Bros. Animation, Warner Bros. Home Entertainment Group
Год выпуска: 2013 г.
Жанр: боевик, мультфильм, приключения, фантастика, фэнтези
Продолжительность: 01:21:15--Мировая премьера: 30 июля 2013--Перевод: Профессиональный (полное дублирование) [DuBDrag Project]
Оригинальный аудиопоток: английский-Режиссер: Джей Олива / Jay Oliva--В ролях: Майкл Б. Джордан, Нэйтан Филлион, Кэри Элвис, Рон Перлман, Кевин МакКидд, Си Томас Хауэлл, Дана Дилэйни, Джастин Чэмберс, Дэнни Хьюстон, Кевин Конрой--Описание: Миллионы людей в нашем мире ссорятся по тем или иным причинам. Кто-то умеет мирно разрешать конфликты, кто-то же привык решать все проблемы «на кулаках». Но мало кто верит в существование истинной справедливости, однако команда супергероев всегда готова подтвердить, что справедливость все же, существует. Отважные спасатели бросаются на помощь к тем, кто пострадал от незаконных или нечестных действий злодеев, они очищают мир от негодяев, делая его более добрым и светлым.-- --Качество видео: DVDRip
Контейнер: AVI
Видео кодек: XviD
Аудио кодек: MP3/AC3
Видео: 720x400 (1.80:1), 23.976 fps, XviD build 50 ~1754 kbps avg, 0.25 bit/pixel
Аудио 1: 48 kHz, MPEG Layer 3, 2 ch, ~256.00 kbps avg Dub [DuBDrag Project]
Аудио 2: 48 kHz, AC3 Dolby Digital, 3/2 (L,C,R,l,r) + LFE ch, ~384 kbps Original (Eng)
Cубтитры: отсутствуют
Общее
Полное имя : H:\Torrent2\Justice.League.The.Flashpoint.Paradox.2013.D.HDRip.1400MB[pirat.ca].avi
Формат : AVI
Формат/Информация : Audio Video Interleave
Размер файла : 1,37 Гбайт
Продолжительность : 1 ч. 21 м.
Общий поток : 2410 Кбит/сек
Программа кодирования : VirtualDubMod 1.5.10.2 (build 2540/release)
Библиотека кодирования : VirtualDubMod build 2540/release
Видео
Идентификатор : 0
Формат : MPEG-4 Visual
Профиль формата : Advanced [email protected]
Параметр BVOP формата : 2
Параметр QPel формата : Нет
Параметр GMC формата : Без точки перехода
Параметр матрицы формата : Выборочная
Идентификатор кодека : XVID
Идентификатор кодека/Подсказка : XviD
Продолжительность : 1 ч. 21 м.
Битрейт : 1756 Кбит/сек
Ширина : 720 пикселей
Высота : 400 пикселей
Соотношение сторон : 16:9
Частота кадров : 23,976 кадра/сек
Цветовое пространство : YUV
Субдискретизация насыщенности : 4:2:0
Битовая глубина : 8 бит
Тип развёртки : Прогрессивная
Метод сжатия : С потерями
Бит/(Пиксели*Кадры) : 0.254
Размер потока : 1020 Мбайт (73%)
Библиотека кодирования : XviD 1.2.1 (UTC 2008-12-04)
Аудио #1
Идентификатор : 1
Формат : MPEG Audio
Версия формата : Version 1
Профиль формата : Layer 3
Режим : Joint stereo
Идентификатор кодека : 55
Идентификатор кодека/Подсказка : MP3
Продолжительность : 1 ч. 21 м.
Вид битрейта : Постоянный
Битрейт : 256 Кбит/сек
Каналы : 2 канала
Частота : 48,0 КГц
Метод сжатия : С потерями
Размер потока : 149 Мбайт (11%)
Выравнивание : Соединение по промежуткам
Продолжительность промежутка : 42 мс. (1,00 видеокадр)
Время предзагрузки промежутка : 504 мс.
Аудио #2
Идентификатор : 2
Формат : AC-3
Формат/Информация : Audio Coding 3
Расширение режима : CM (complete main)
Параметр Endianness формата : Big
Идентификатор кодека : 2000
Продолжительность : 1 ч. 21 м.
Вид битрейта : Постоянный
Битрейт : 384 Кбит/сек
Каналы : 6 каналов
Расположение каналов : Front: L C R, Side: L R, LFE
Частота : 48,0 КГц
Битовая глубина : 16 бит
Метод сжатия : С потерями
Размер потока : 223 Мбайт (16%)
Выравнивание : Разделение по промежуткам
Продолжительность промежутка : 42 мс. (1,00 видеокадр)
Время предзагрузки промежутка : 500 мс.
Трейлер
Download / Скачать

Хотите скачать бесплатно? Зарегистрируйтесь на сайте (ссылка на регистрацию). Pirat.ca - самый быстрый торрент трекер в рунете!

Как скачивать  ·   Что такое торрент  ·   Рейтинг и ограничения

Пост 09-Авг-2013 16:39 (спустя 2 часа 32 минуты)

Топик был перенесен из форума Мультфильмы (Трюм) в форум Новинки (HD|DVD|BD| TV|SAT|PDTV| - Rips)
ara1205
 

gis

Корсар

Пост 09-Авг-2013 17:46 (спустя 3 часа)

[Q] 

Как фильм? Смотрибельный?
[Профиль]  [ЛС] 

rampage

Штурман

Пост 10-Авг-2013 21:00 (спустя 1 день 3 часа)

[Q] 

Прост офигенный!!!
[Профиль]  [ЛС] 

Честер

Морской Волк

78

Пост 11-Авг-2013 09:40 (спустя 12 часов)

[Q] 

Спасибо!!! Лови бочку Супер!
[Профиль]  [ЛС] 

Яросллав

Лоцман

Пост 13-Авг-2013 06:01 (спустя 1 день 20 часов)

[Q] 

Всем качать!!! Зуб даю... Супер! Качают ВСЕ!!! Раздающему респект! Лови бочку Мне понравилось
[Профиль]  [ЛС] 

kudrjavy

Флибустьер

Пост 16-Авг-2013 01:08 (спустя 2 дня 19 часов)

[Q] 

Спасибо!)))заценим!)) Всем качать!!!

_________________
Девушки-как печеньки: ломаются,пока не намокнут...
[Профиль]  [ЛС] 

westrise

Морской Волк

Пост 17-Авг-2013 02:05 (спустя 1 день)

[Q] 

Не ожидал,что мульт на столько охренительный ay
Всем качать!!!
[Профиль]  [ЛС] 

zloiaspirant

Корсар

Пост 27-Авг-2013 05:45 (спустя 10 дней)

[Q] 

Раздающему респект! Лови бочку
[Профиль]  [ЛС] 

Valentin2010

Корсар

Пост 01-Сен-2013 17:40 (спустя 5 дней)

[Q] 

Автору респект!!! Лови бочку

_________________
"Никогда не мстите подлым людям. Просто станьте счастливыми. И они этого не переживут... " – Юрий Никулин
[Профиль]  [ЛС] 

velika-t

Лоцман

Пост 05-Сен-2013 11:37 (спустя 3 дня)

[Q] 

спасибо
спасибо
[Профиль]  [ЛС] 

aleks77l

Морской Волк

Пост 05-Сен-2013 19:11 (спустя 7 часов)

[Q] 

!COOL! Спасибо!!! Лови бочку
[Профиль]  [ЛС] 

anonymoys

Гроза морей

901

Пост 05-Сен-2013 20:10 (спустя 59 минут)

[Q] 

!COOL!
[Профиль]  [ЛС] 

FINN54

Гроза морей

Пост 06-Сен-2013 01:21 (спустя 5 часов)

[Q] 

Спасибо!!! Автору респект!!!
[Профиль]  [ЛС] 

s.tema99

Корсар

94

Пост 07-Сен-2013 18:09 (спустя 1 день 16 часов)

[Q] 

Спасибо!!! Супер! !COOL! Автору респект!!! Мне понравилось
[Профиль]  [ЛС] 
Показать сообщения:    
Ответить на тему

Текущее время: Сегодня 09:51

Часовой пояс: GMT + 4



Вы не можете начинать темы
Вы не можете отвечать на сообщения
Вы не можете редактировать свои сообщения
Вы не можете удалять свои сообщения
Вы не можете голосовать в опросах
Вы не можете прикреплять файлы к сообщениям
Вы не можете скачивать файлы

▼ Вниз