ML
     
  Уважаемый Гость!
Вы можете поддержать проект и зарегистрироваться у наших партнеров - онлайн-стратегия MyLands. При регистрации в игре Вы получите код, который сможете активировать после регистрации на pirat.ca и получить 1000 дублонов.

Ваш код:
0af2e2107bc9b5dd5ac2c09f9fc25e1a77c43887
 
     

Эпик / Epic (Крис Уэдж / Chris Wedge) [2013 г., мультфильм, фэнтези, приключения, семейный, HDRip] Dub [Чистый звук][iTunes Russia] + Original (Eng)

Ответить на тему
 
Автор
Сообщение

Пост 10-Авг-2013 12:44

[Q] 

aleksey99

-Эпик / Epic-«Discover a world beyond your imagination»- Производство: США / 20th Century Fox Animation, Blue Sky Studios
Год выпуска: 2013 г.
Жанр: мультфильм, фэнтези, приключения, семейный
Продолжительность: 01:42:29--Мировая премьера: 16 мая 2013
Российская премьера: 30 мая 2013, «Двадцатый Век Фокс СНГ»
Дата выхода DVD: 12 сентября 2013, «Двадцатый Век Фокс СНГ»
Дата выхода Blu-Ray: 12 сентября 2013, «Двадцатый Век Фокс СНГ»--Перевод: Профессиональный (полное дублирование) [Чистый звук][iTunes Russia]
Оригинальный аудиопоток: английский-Режиссер: Крис Уэдж / Chris Wedge--Роли озвучивали: Джейсон Судейкис, Стивен Тайлер, Аманда Сайфред, Питбулл, Бейонсе Ноулз, Джош Хатчерсон, Джуда Фридлендер, Колин Фаррелл, Азиз Ансари, Блейк Андерсон--Описание: После долгой разлуки юная Мэри Кэтрин возвращается в дом, где отшельником живет ее отец, безумный профессор Бомба. Однако тот совсем не обращает внимания на дочь и одержим лишь одной идеей — изучить скрытый от посторонних глаз таинственный лесной мир. Девушка отказывается верить, что под ногами человечества идет вечная борьба между армиями, воюющими на сторонах добра и зла. Чудесным образом Мэри Кэтрин уменьшается в размерах и знакомится с маленькими воинами. Теперь от нее зависит спасение не только волшебного лесного, но и реального человеческого мира…-- --Качество видео: HDRip
Контейнер: AVI
Видео кодек: XviD
Аудио кодек: AC3
Видео: 720x304 (2.37:1), 23.976 fps, XviD build 50 ~2021 kbps avg, 0.39 bit/pixel
Аудио 1: 48 kHz, AC3 Dolby Digital, 3/2 (L,C,R,l,r) + LFE ch, ~384 kbps Dub [Чистый звук]
Аудио 2: 48 kHz, AC3 Dolby Digital, 3/2 (L,C,R,l,r) + LFE ch, ~448 kbps Original (Eng)
Cубтитры: отсутствуют
Общее
Полное имя : H:\Torrent2\Epic.2013.D.HDRip.2100MB[pirat.ca].avi
Формат : AVI
Формат/Информация : Audio Video Interleave
Размер файла : 2,05 Гбайт
Продолжительность : 1 ч. 42 м.
Общий поток : 2867 Кбит/сек
Программа кодирования : VirtualDubMod 1.5.10.2 (build 2540/release)
Библиотека кодирования : VirtualDubMod build 2540/release
Видео
Идентификатор : 0
Формат : MPEG-4 Visual
Профиль формата : Advanced [email protected]
Параметр BVOP формата : 2
Параметр QPel формата : Нет
Параметр GMC формата : Без точки перехода
Параметр матрицы формата : Default (MPEG)
Идентификатор кодека : XVID
Идентификатор кодека/Подсказка : XviD
Продолжительность : 1 ч. 42 м.
Битрейт : 2021 Кбит/сек
Ширина : 720 пикселей
Высота : 304 пикселя
Соотношение сторон : 2,35:1
Частота кадров : 23,976 кадра/сек
Цветовое пространство : YUV
Субдискретизация насыщенности : 4:2:0
Битовая глубина : 8 бит
Тип развёртки : Прогрессивная
Метод сжатия : С потерями
Бит/(Пиксели*Кадры) : 0.385
Размер потока : 1,45 Гбайт (70%)
Библиотека кодирования : XviD 1.2.1 (UTC 2008-12-04)
Аудио #1
Идентификатор : 1
Формат : AC-3
Формат/Информация : Audio Coding 3
Расширение режима : CM (complete main)
Параметр Endianness формата : Big
Идентификатор кодека : 2000
Продолжительность : 1 ч. 42 м.
Вид битрейта : Постоянный
Битрейт : 384 Кбит/сек
Каналы : 6 каналов
Расположение каналов : Front: L C R, Side: L R, LFE
Частота : 48,0 КГц
Битовая глубина : 16 бит
Метод сжатия : С потерями
Размер потока : 281 Мбайт (13%)
Выравнивание : Разделение по промежуткам
Продолжительность промежутка : 42 мс. (1,00 видеокадр)
Время предзагрузки промежутка : 500 мс.
Аудио #2
Идентификатор : 2
Формат : AC-3
Формат/Информация : Audio Coding 3
Расширение режима : CM (complete main)
Параметр Endianness формата : Big
Идентификатор кодека : 2000
Продолжительность : 1 ч. 42 м.
Вид битрейта : Постоянный
Битрейт : 448 Кбит/сек
Каналы : 6 каналов
Расположение каналов : Front: L C R, Side: L R, LFE
Частота : 48,0 КГц
Битовая глубина : 16 бит
Метод сжатия : С потерями
Размер потока : 328 Мбайт (16%)
Выравнивание : Разделение по промежуткам
Продолжительность промежутка : 42 мс. (1,00 видеокадр)
Время предзагрузки промежутка : 500 мс.
Трейлер
Download / Скачать

Хотите скачать бесплатно? Зарегистрируйтесь на сайте (ссылка на регистрацию). Pirat.ca - самый быстрый торрент трекер в рунете!

Как скачивать  ·   Что такое торрент  ·   Рейтинг и ограничения

Пост 10-Авг-2013 13:02 (спустя 17 минут)

Топик был перенесен из форума Мультфильмы (Трюм) в форум Новинки (HD|DVD|BD| TV|SAT|PDTV| - Rips)
erchine
 

savatey

Корсар

Пост 10-Авг-2013 14:10 (спустя 1 час 25 минут)

[Q] 

Наконец-то качество смотрибельное . Спасибо!!!

_________________
[Профиль]  [ЛС] 

butyas

Корсар

Пост 10-Авг-2013 14:40 (спустя 29 минут)

[Q] 

Спасибо!!! Супер! Всем качать!!! Всем качать!!!
[Профиль]  [ЛС] 

bull271174

Флибустьер

Пост 11-Авг-2013 14:55 (спустя 1 день)

[Q] 

Спасибо!!! Супер! Лови бочку
[Профиль]  [ЛС] 

vik238

Корсар

Пост 11-Авг-2013 15:19 (спустя 23 минуты)

[Q] 

Автору респект!!! Спасибо!!! Супер!
[Профиль]  [ЛС] 

koolega77

Морской Волк

Пост 11-Авг-2013 15:39 (спустя 19 минут)

[Q] 

от детей спасибо
[Профиль]  [ЛС] 

ivasik007

Морской Волк

Пост 11-Авг-2013 20:37 (спустя 4 часа)

[Q] 

глянем возможно))
[Профиль]  [ЛС] 

kuchin-maksim

Лоцман

Пост 11-Авг-2013 21:06 (спустя 28 минут)

[Q] 

Супер! Качают ВСЕ!!! Ку три раза
[Профиль]  [ЛС] 

Zasedatelev

Морской Волк

Пост 11-Авг-2013 22:59 (спустя 1 час 53 минуты)

[Q] 

От взрослых тоже спасибо =) очень крутой мульт. Рекомендую.
[Профиль]  [ЛС] 

trogvar_10

Корсар

38

Пост 12-Авг-2013 01:35 (спустя 2 часа 35 минут)

[Q] 

Спасибо!!! Лови бочку Супер! Автору респект!!!
[Профиль]  [ЛС] 

liolik80

Лоцман

Пост 15-Авг-2013 16:11 (спустя 3 дня)

[Q] 

Спасибо!!! !COOL! Супер!
[Профиль]  [ЛС] 

HukoJla

Штурман

98

Пост 17-Авг-2013 15:40 (спустя 1 день 23 часа)

[Q] 

Всем качать!!! Супер! Спасибо!!!
ПОСЛЕ МУЛЬТА ОСТАЮТСЯ ПРИЯТНЫЕ ОЩУЩЕНИЯ.
РЕКОМЕНДУЮ ВСЕМ!
[Профиль]  [ЛС] 

madler

Штурман

Пост 17-Авг-2013 15:54 (спустя 13 минут)

[Q] 

щя заценим что за мульт Спасибо!!!
[Профиль]  [ЛС] 

ALES_LVOV

Морской Волк

Пост 17-Авг-2013 17:10 (спустя 1 час 15 минут)

[Q] 

СПАСИБО !!!
[Профиль]  [ЛС] 

oldrevan

Шкипер

Пост 23-Авг-2013 23:24 (спустя 6 дней)

[Q] 

Спасибо!!! Супер!
[Профиль]  [ЛС] 

chell

Штурман

Пост 24-Авг-2013 01:37 (спустя 2 часа 12 минут)

[Q] 

Спасибо!!! Ребенок доволен
[Профиль]  [ЛС] 

Alexander1985

Шкипер

Пост 25-Авг-2013 06:48 (спустя 1 день 5 часов)

[Q] 

спасибо, будет что с женой посмотреть))) она любит такое)
[Профиль]  [ЛС] 

zloiaspirant

Корсар

Пост 25-Авг-2013 16:01 (спустя 9 часов)

[Q] 

Глянем, оценим. Лови бочку
[Профиль]  [ЛС] 

Alzeth

Лоцман

Пост 20-Сен-2013 02:16 (спустя 25 дней)

[Q] 

зашибись шары ньютона в исполнении (внимание!! спойлер) улитки и слизняка!!
[Профиль]  [ЛС] 
Показать сообщения:    
Ответить на тему

Текущее время: Сегодня 00:07

Часовой пояс: GMT + 4



Вы не можете начинать темы
Вы не можете отвечать на сообщения
Вы не можете редактировать свои сообщения
Вы не можете удалять свои сообщения
Вы не можете голосовать в опросах
Вы не можете прикреплять файлы к сообщениям
Вы не можете скачивать файлы

▼ Вниз