ML
     
  Уважаемый Гость!
Вы можете поддержать проект и зарегистрироваться у наших партнеров - онлайн-стратегия MyLands. При регистрации в игре Вы получите код, который сможете активировать после регистрации на pirat.ca и получить 1000 дублонов.

Ваш код:
e93cd9e43017f251127f220889864c05934e61c6
 
     

Джок / Jock (Дункан МакНили / Duncan MacNeillie) [2011 г.] (Мультфильм, комедия, приключения, семейный) [DVDRip] (DVO)

Страницы :  1, 2  След.

Ответить на тему
 
Автор
Сообщение

Пост 27-Дек-2011 20:26

[Q] 

Чужая

--Джок / Jock-- Год выпуска: 2011
Мировая премьера: 29 июля 2011
Российская премьера: 22 марта 2012
Производство: США ЮАР
Жанр: Мультфильм, комедия, приключения, семейный
Продолжительность: 01:19:22
Перевод: Любительский (Двухголосый закадровый)--Режиссер: Дункан МакНили / Duncan MacNeillie--В ролях: Брайан Адамс, Уильям Болдуин, Энтони Бишоп, Луиса Сердан, Филина Цердан, Тед Дэнсон, Роуз Эмануэл, Ава Флюти, Катерина Флюти, Ким Харт...--Описание: История о дружбе человека и пса по имени Джок.-- --Источник/Качество: DVDRip
Формат: AVI
Видео кодек: XviD
Аудио кодек: AC3
Видео: 720x400 (1.80:1), 25 fps, XviD build 50 ~1030 kbps avg, 0.14 bit/pixel
Аудио: 48 kHz, AC3 Dolby Digital, 2/0 (L,R) ch, ~192 kbps
Общее
Полное имя : D:\[Chuzhaya]\djok.2011.DVDRip.XviD.[Chuzhaya].avi
Формат : AVI
Формат/Информация : Audio Video Interleave
Размер файла : 700 Мбайт
Продолжительность : 1 ч. 19 м.
Общий поток : 1232 Кбит/сек
Программа кодирования : VirtualDubMod 1.5.10.3 | www.virtualdub-fr.org || (build 2550/release)
Библиотека кодирования : VirtualDub build 29808/release
Видео
Идентификатор : 0
Формат : MPEG-4 Visual
Профиль формата : Advanced [email protected]
Параметр BVOP формата : 1
Параметр QPel формата : Нет
Параметр GMC формата : Без точки перехода
Параметр матрицы формата : Default (MPEG)
Идентификатор кодека : XVID
Идентификатор кодека/Подсказка : XviD
Продолжительность : 1 ч. 19 м.
Битрейт : 1031 Кбит/сек
Ширина : 720 пикс.
Высота : 400 пикс.
Соотношение сторон : 16:9
Частота кадров : 25,000 кадр/сек
Цветовое пространство : YUV
Подвыборка цветности : 4:2:0
Битовая глубина : 8 бит
Тип развёртки : Прогрессивная
Метод сжатия : С потерями
Бит/(Пиксели*Кадры) : 0.143
Размер потока : 585 Мбайт (84%)
Библиотека кодирования : XviD 1.2.1 (UTC 2008-12-04)
Аудио
Идентификатор : 1
Формат : AC-3
Формат/Информация : Audio Coding 3
Расширение режима : CM (complete main)
Идентификатор кодека : 2000
Продолжительность : 1 ч. 19 м.
Вид битрейта : Постоянный
Битрейт : 192 Кбит/сек
Канал(ы) : 2 канала(ов)
Расположение каналов : Front: L R
Частота : 48,0 КГц
Битовая глубина : 16 бит
Метод сжатия : С потерями
Размер потока : 109 Мбайт (16%)
Выравнивание : Разделение по промежуткам
Продолжительность промежутка : 40 мс. (1,00 видеокадр)
Время предзагрузки промежутка : 500 ms


Download / Скачать

Хотите скачать бесплатно? Зарегистрируйтесь на сайте (ссылка на регистрацию). Pirat.ca - самый быстрый торрент трекер в рунете!

Как скачивать  ·   Что такое торрент  ·   Рейтинг и ограничения



Последний раз редактировалось: Чужая (2012-04-12 15:17), всего редактировалось 1 раз

dimonpa

Гроза морей

Пост 28-Дек-2011 07:49 (спустя 11 часов)

[Q] 

Spasibo
[Профиль]  [ЛС] 

hot1974

Лоцман

Пост 28-Дек-2011 11:35 (спустя 3 часа)

[Q] 

Спасибо,чужая! Ты уже как родная!)))
[Профиль]  [ЛС] 

arhad81

Шкипер

19

Пост 28-Дек-2011 13:54 (спустя 2 часа 19 минут)

[Q] 

а мульт как???

_________________
[Профиль]  [ЛС] 

alex1372

Штурман

Пост 31-Дек-2011 10:00 (спустя 2 дня 20 часов)

[Q] 

громадное спасибо,и отдельный респект за Пеликана.Кустурица рулит!
[Профиль]  [ЛС] 

ruslanbek

Лоцман

Пост 01-Янв-2012 04:52 (спустя 18 часов)

[Q] 

cr cr neverayatnii superr multfilm
[Профиль]  [ЛС] 

BIG_ilya

Лоцман

Пост 04-Янв-2012 00:24 (спустя 2 дня 19 часов)

[Q] 

Спасибо
[Профиль]  [ЛС] 

Yrets

Флибустьер

159

Пост 18-Янв-2012 17:14 (спустя 14 дней)

[Q] 

Спасибо, качну дочке в дорогу...
[Профиль]  [ЛС] 

got70

Легенда

752

Пост 18-Янв-2012 21:13 (спустя 3 часа)

[Q] 

РЕСПЕКТ.

_________________
Добро непременно победит зло!Непременно...Затем поставит на колени,и зверски УБЬЁТ!
[Профиль]  [ЛС] 

BOBROFF

Морской Волк

Пост 22-Янв-2012 13:16 (спустя 3 дня)

[Q] 

КАК МУЛЬТ?
[Профиль]  [ЛС] 

Mistar

Морской Волк

1

Пост 23-Янв-2012 19:45 (спустя 1 день 6 часов)

[Q] 

Благодарю!!!
[Профиль]  [ЛС] 

Ambeg

Корсар

Пост 24-Янв-2012 21:24 (спустя 1 день 1 час)

[Q] 

Перевод: Любительский (Двухголосый закадровый)
меня такое отворачивает от раздач.....
[Профиль]  [ЛС] 

bull271174

Флибустьер

Пост 25-Янв-2012 15:17 (спустя 17 часов)

[Q] 

Спасибо!!! Будем посмотреть
[Профиль]  [ЛС] 

bull271174

Флибустьер

Пост 25-Янв-2012 16:36 (спустя 1 час 18 минут)

[Q] 

Прикольный мульт
[Профиль]  [ЛС] 

baltimor337

Корсар

Пост 25-Янв-2012 18:47 (спустя 2 часа 11 минут)

[Q] 

спс
[Профиль]  [ЛС] 

Aleks44

Гроза морей

Пост 27-Янв-2012 02:16 (спустя 1 день 7 часов)

[Q] 

Так пойдет ребенку раз посмотреть
[Профиль]  [ЛС] 

serafim7

Корсар

99

Пост 27-Янв-2012 11:52 (спустя 9 часов)

[Q] 

ждем качества)
[Профиль]  [ЛС] 

ArmSlave

Штурман

Пост 29-Янв-2012 01:29 (спустя 1 день 13 часов)

[Q] 

спасибь
[Профиль]  [ЛС] 

Artreds

Корсар

807

Пост 31-Янв-2012 08:13 (спустя 2 дня 6 часов)

[Q] 

спасибо!

_________________

[Профиль]  [ЛС] 

LORD OR

Корсар

Пост 03-Фев-2012 21:05 (спустя 3 дня)

[Q] 

[Профиль]  [ЛС] 

Olegarkh73

Корсар

240

Пост 05-Фев-2012 13:02 (спустя 1 день 15 часов)

[Q] 

Спасибо !
[Профиль]  [ЛС] 

Димарик82

Корсар

725

Пост 05-Фев-2012 16:26 (спустя 3 часа)

[Q] 

[Профиль]  [ЛС] 

ильдорадо

Шкипер

Пост 07-Фев-2012 02:42 (спустя 1 день 10 часов)

[Q] 

[Профиль]  [ЛС] 

ппавел

Шкипер

Пост 08-Фев-2012 19:26 (спустя 1 день 16 часов)

[Q] 

спасибо
[Профиль]  [ЛС] 

sindoyun

Штурман

Пост 11-Фев-2012 00:16 (спустя 2 дня 4 часа)

[Q] 


_________________
Подпись отключена за нарушение правил форума
[Профиль]  [ЛС] 

Eugenu

Шкипер

Пост 11-Фев-2012 06:55 (спустя 6 часов)

[Q] 

[Профиль]  [ЛС] 

loopoo

Морской Волк

Пост 15-Фев-2012 20:48 (спустя 4 дня)

[Q] 

мульт полная хрень
[Профиль]  [ЛС] 

gr71silver

Корсар

Пост 17-Фев-2012 19:39 (спустя 1 день 22 часа)

[Q] 

Спасибо!!
[Профиль]  [ЛС] 

Sanji Kock

Морской Волк

3

Пост 18-Фев-2012 00:47 (спустя 5 часов)

[Q] 

Скачаем, может мелкой понравиться )

_________________
Называйте меня Mr.Fox. Лисы захватят этот прекрасный мир и сделают его одной большой норой....
[Профиль]  [ЛС] 

Lyha

Штурман

Пост 18-Фев-2012 15:41 (спустя 14 часов)

[Q] 

Спасибо! Поставил 5, но ...Ваш голос засчитан! Оценка: 0.0 (157 голосов)

_________________
Мужество, честь и отвага - три признака алкогольного опьянения
[Профиль]  [ЛС] 
Показать сообщения:    
Ответить на тему

Текущее время: Сегодня 04:26

Часовой пояс: GMT + 4



Вы не можете начинать темы
Вы не можете отвечать на сообщения
Вы не можете редактировать свои сообщения
Вы не можете удалять свои сообщения
Вы не можете голосовать в опросах
Вы не можете прикреплять файлы к сообщениям
Вы не можете скачивать файлы

▼ Вниз