ML
     
  Уважаемый Гость!
Вы можете поддержать проект и зарегистрироваться у наших партнеров - онлайн-стратегия MyLands. При регистрации в игре Вы получите код, который сможете активировать после регистрации на pirat.ca и получить 1000 дублонов.

Ваш код:
0ea1bf889af42fca5f67d0a391efb3400850ad7c
 
     

Том и Джерри: Гигантское приключение / Tom and Jerry's Giant Adventure (Спайк Брандт, Тони Сервоне / Spike Brandt, Tony Cervone) [2013 г., мультфильм, приключения, семейный, HDRip] Dub [лицензия]

Ответить на тему
 
Автор
Сообщение

Пост 17-Авг-2013 10:11

[Q] 

aleksey99

--Том и Джерри: Гигантское приключение / Tom and Jerry's Giant Adventure- Производство: США / Warner Bros.
Год выпуска: 2013 г.
Жанр: мультфильм, приключения, семейный
Продолжительность: 00:57:04-Релиз на DVD: 15 августа 2013, «Двадцатый Век Фокс СНГ»-Перевод: Профессиональный (полное дублирование)[лицензия]-Режиссер: Спайк Брандт, Тони Сервоне / Spike Brandt, Tony Cervone-В ролях: Том Уилсон, Гаррисон Кейллор, Пол Рубенс, Грей Делайл, Иаков Бертран-Описание: Любимцы зрителей, легендарные Том и Джерри вновь оказываются втянутыми в увлекательное приключение!
На этот раз они вместе с юным Джеком возрождают известную всем сказку "Джек и волшебные бобы". Вместе они отчаянно пытаются спасти волшебный парк. Раздобыв волшебные бобы, они отправляются в путешествие, которое сулит им встречу с многими известными зрителям персонажами, такими как Спайк и Золотой гусь.
Смогут ли Том и Джерри положить конец своей извечной вражде, чтобы спасти волшебный парк? Смотрите Том и Джерри: Гигантское приключение, и узнаете!-- -Качество видео: HDRip
Контейнер: AVI
Видео кодек: XviD
Аудио кодек: AC3
Видео: 720x400 (1.80:1), 23.976 fps, XviD build 50 ~1511 kbps avg, 0.22 bit/pixel
Аудио: 48 kHz, AC3 Dolby Digital, 2/0 (L,R) Surround Encoded ch, ~192 kbps
Cубтитры: отсутствуют
Общее
Полное имя : H:\Torrent2\Tom.i.Dzherri.Gigantskoe.prikljuchenie.2013.D.HDRip[pirat.ca].avi
Формат : AVI
Формат/Информация : Audio Video Interleave
Размер файла : 700 Мбайт
Продолжительность : 57 м.
Общий поток : 1713 Кбит/сек
Программа кодирования : VirtualDubMod 1.5.10.3 | www.virtualdub-fr.org || (build 2550/release)
Библиотека кодирования : VirtualDubMod build 2550/release
Видео
Идентификатор : 0
Формат : MPEG-4 Visual
Профиль формата : Advanced [email protected]
Параметр BVOP формата : 2
Параметр QPel формата : Нет
Параметр GMC формата : Без точки перехода
Параметр матрицы формата : Выборочная
Идентификатор кодека : XVID
Идентификатор кодека/Подсказка : XviD
Продолжительность : 57 м.
Битрейт : 1511 Кбит/сек
Ширина : 720 пикселей
Высота : 400 пикселей
Соотношение сторон : 16:9
Частота кадров : 23,976 кадра/сек
Цветовое пространство : YUV
Субдискретизация насыщенности : 4:2:0
Битовая глубина : 8 бит
Тип развёртки : Прогрессивная
Метод сжатия : С потерями
Бит/(Пиксели*Кадры) : 0.219
Размер потока : 618 Мбайт (88%)
Библиотека кодирования : XviD 1.2.1 (UTC 2008-12-04)
Аудио
Идентификатор : 1
Формат : AC-3
Формат/Информация : Audio Coding 3
Профиль формата : Dolby Digital
Расширение режима : CM (complete main)
Параметр Endianness формата : Big
Идентификатор кодека : 2000
Продолжительность : 57 м.
Вид битрейта : Постоянный
Битрейт : 192 Кбит/сек
Каналы : 2 канала
Расположение каналов : Front: L R
Частота : 48,0 КГц
Битовая глубина : 16 бит
Метод сжатия : С потерями
Размер потока : 78,4 Мбайт (11%)
Выравнивание : Разделение по промежуткам
Продолжительность промежутка : 42 мс. (1,00 видеокадр)
Время предзагрузки промежутка : 500 мс.
Трейлер
Download / Скачать

Хотите скачать бесплатно? Зарегистрируйтесь на сайте (ссылка на регистрацию). Pirat.ca - самый быстрый торрент трекер в рунете!

Как скачивать  ·   Что такое торрент  ·   Рейтинг и ограничения

Пост 17-Авг-2013 17:06 (спустя 6 часов)

Топик был перенесен из форума Мультфильмы (Трюм) в форум Новинки (HD|DVD|BD| TV|SAT|PDTV| - Rips)
ara1205
 

Alex-dix

Флибустьер

Пост 18-Авг-2013 17:15 (спустя 1 день 7 часов)

[Q] 

Спасибо!!!
[Профиль]  [ЛС] 

Jek@

Легенда

Пост 19-Авг-2013 03:42 (спустя 10 часов)

[Q] 

Спасибо!!! .
[Профиль]  [ЛС] 

urlas66

Морской Волк

Пост 29-Авг-2013 07:05 (спустя 10 дней)

[Q] 

Супер!
[Профиль]  [ЛС] 

italianez2004

Штурман

Пост 03-Сен-2013 03:31 (спустя 4 дня)

[Q] 

На любителя Супер!
[Профиль]  [ЛС] 

svmaxus

Шкипер

Пост 07-Сен-2013 16:38 (спустя 4 дня)

[Q] 

!COOL!
[Профиль]  [ЛС] 

alex denver71

Флибустьер

Пост 14-Ноя-2013 08:28 (спустя 2 месяца 6 дней)

[Q] 

Автору респект!!! сынишка в восторге от этого мультика ay
[Профиль]  [ЛС] 

Aртем_Aлексеевич

Штурман

Пост 30-Дек-2013 20:41 (спустя 1 месяц 16 дней)

[Q] 

люблю мультики смотреть
[Профиль]  [ЛС] 

Han.M

Флибустьер

Пост 24-Фев-2014 22:01 (спустя 1 месяц 25 дней)

[Q] 

70 лет на высоте!!!! автору спасибо
[Профиль]  [ЛС] 

zaha13rius

Лоцман

Пост 03-Мар-2014 01:08 (спустя 6 дней)

[Q] 

том и джерри forever.спасибо.
[Профиль]  [ЛС] 

дмитрий1987@mail.ru

Морской Волк

Пост 11-Июн-2014 09:47 (спустя 3 месяца 8 дней)

[Q] 

прикольно! ребенок будет рад)))
[Профиль]  [ЛС] 
Показать сообщения:    
Ответить на тему

Текущее время: Сегодня 00:32

Часовой пояс: GMT + 4



Вы не можете начинать темы
Вы не можете отвечать на сообщения
Вы не можете редактировать свои сообщения
Вы не можете удалять свои сообщения
Вы не можете голосовать в опросах
Вы не можете прикреплять файлы к сообщениям
Вы не можете скачивать файлы

▼ Вниз