ML
     
  Уважаемый Гость!
Вы можете поддержать проект и зарегистрироваться у наших партнеров - онлайн-стратегия MyLands. При регистрации в игре Вы получите код, который сможете активировать после регистрации на pirat.ca и получить 1000 дублонов.

Ваш код:
cc3be08b7507661c03e0a2f582d0da3a659ea55a
 
     

Лило и Стич 2: Большая проблема Стича / Lilo & Stitch 2: Stitch Has a Glitch (Майкл ЛаБаш, Энтони Леондис / Michael LaBash, Anthony Leondis) [2005, Анимация, DVDRip] Dub + Eng + rus(full,short),eng sub

Ответить на тему
 
Автор
Сообщение

Пост 27-Дек-2011 22:42

[Q] 

Андря

Лило и Стич 2: Большая проблема Стича / Lilo & Stitch 2: Stitch Has a Glitch
Страна: США
Жанр: Анимация
Продолжительность: 1:05:20
Год выпуска: 2005
Перевод: Профессиональный (дублированный)
Русские субтитры: есть
Режиссёр: Майкл ЛаБаш, Энтони Леондис / Michael LaBash, Anthony Leondis
Описание: Жизнь Стича была веселой и беззаботной до того, как на Гавайях высаживаются все Эксперименты 626. Он помогает Лило пойти по стопам ее матери в подготовке к большому танцевальному конкурсу на острове.
Жизнь кажется идеальной, пока Стич не попадает в затруднительное положение, и тогда все идет наперекосяк. И вот пришла пора Лило, Нани, Джамбе и их всей большой семье последовать законам «Оханы» и прийти на помощь маленькому веселому другу.
Качество: DVDRip
Формат: AVI
Аудио кодек: XviD
Видео кодек: АС3
Видео: 720x400, 25 fps, XviD, 2356 kbps avg, 0.33 bit/pixel
Аудио 1: 48 kHz, AC3 Dolby Digital, 3/2 (L,C,R,l,r) + LFE ch, ~384 kbps (Russian) (Dub)
Аудио 2: 48 kHz, AC3 Dolby Digital, 3/2 (L,C,R,l,r) + LFE ch, ~448 kbps (English)
Субтитры: Russian(полные)(внешние), Russian(только подписи)(внешние),English(внешние) : SubRip (srt)
Общее
Полное имя : D:\2005.Lilo.&.Stitch.2.Stitch.Has.a.Glitch.DVDRip.XviD.AC3.Dub.Eng\2005.Lilo.&.Stitch.2.Stitch.Has.a.Glitch.DVDRip.XviD.AC3.Dub.Eng.avi
Формат : AVI
Формат/Информация : Audio Video Interleave
Размер файла : 1,46 Гбайт
Продолжительность : 1 ч. 5 м.
Общий поток : 3204 Кбит/сек
Программа кодирования : VirtualDubMod 1.5.10.2 (build 2540/release)
Библиотека кодирования : VirtualDubMod build 2540/release
Видео
Идентификатор : 0
Формат : MPEG-4 Visual
Профиль формата : Advanced [email protected]
Параметр BVOP формата : 1
Параметр QPel формата : Нет
Параметр GMC формата : Без точки перехода
Параметр матрицы формата : Default (H.263)
Режим смешивания : Сжатый битовый поток
Идентификатор кодека : DX50
Идентификатор кодека/Подсказка : DivX 5
Продолжительность : 1 ч. 5 м.
Битрейт : 2357 Кбит/сек
Ширина : 720 пикселей
Высота : 400 пикселей
Соотношение сторон : 16:9
Частота кадров : 25,000 кадров/сек
Цветовое пространство : YUV
Субдискретизация насыщенности : 4:2:0
Битовая глубина : 8 бит
Тип развёртки : Прогрессивная
Метод сжатия : С потерями
Бит/(Пиксели*Кадры) : 0.327
Размер потока : 1,08 Гбайт (74%)
Библиотека кодирования : XviD 1.2.1 (UTC 2008-12-04)
Аудио #1
Идентификатор : 1
Формат : AC-3
Формат/Информация : Audio Coding 3
Расширение режима : CM (complete main)
Идентификатор кодека : 2000
Продолжительность : 1 ч. 5 м.
Вид битрейта : Постоянный
Битрейт : 384 Кбит/сек
Каналы : 6 каналов
Расположение каналов : Front: L C R, Side: L R, LFE
Частота : 48,0 КГц
Битовая глубина : 16 бит
Метод сжатия : С потерями
Задержка видео : 350 мс.
Размер потока : 179 Мбайт (12%)
Выравнивание : Разделение по промежуткам
Продолжительность промежутка : 40 мс. (1,00 видеокадр)
Время предзагрузки промежутка : 500 мс.
Заголовок : Russian Dub 5.1 384kbps
Аудио #2
Идентификатор : 2
Формат : AC-3
Формат/Информация : Audio Coding 3
Расширение режима : CM (complete main)
Идентификатор кодека : 2000
Продолжительность : 1 ч. 5 м.
Вид битрейта : Постоянный
Битрейт : 448 Кбит/сек
Каналы : 6 каналов
Расположение каналов : Front: L C R, Side: L R, LFE
Частота : 48,0 КГц
Битовая глубина : 16 бит
Метод сжатия : С потерями
Задержка видео : 500 мс.
Размер потока : 209 Мбайт (14%)
Выравнивание : Разделение по промежуткам
Продолжительность промежутка : 40 мс. (1,00 видеокадр)
Время предзагрузки промежутка : 500 мс.
Заголовок : English 5.1 448kbps
Общее
Полное имя : D:\2005.Lilo.&.Stitch.2.Stitch.Has.a.Glitch.DVDRip.XviD.AC3.Dub.Eng\2005.Lilo.&.Stitch.2.Stitch.Has.a.Glitch.Eng.srt
Формат : SubRip
Размер файла : 47,4 Кбайт
Текст
Формат : SubRip
Метод сжатия : Без потерь
Общее
Полное имя : D:\2005.Lilo.&.Stitch.2.Stitch.Has.a.Glitch.DVDRip.XviD.AC3.Dub.Eng\2005.Lilo.&.Stitch.2.Stitch.Has.a.Glitch.Rus.Full.srt
Размер файла : 94,2 Кбайт
Общее
Полное имя : D:\2005.Lilo.&.Stitch.2.Stitch.Has.a.Glitch.DVDRip.XviD.AC3.Dub.Eng\2005.Lilo.&.Stitch.2.Stitch.Has.a.Glitch.Rus.Short.srt
Размер файла : 556 байт


Download / Скачать

Хотите скачать бесплатно? Зарегистрируйтесь на сайте (ссылка на регистрацию). Pirat.ca - самый быстрый торрент трекер в рунете!

Как скачивать  ·   Что такое торрент  ·   Рейтинг и ограничения

Пост 28-Дек-2011 03:57 (спустя 5 часов)

Топик был перенесен из форума Мультипликация в форум Зарубежные полнометражные мультфильмы

Sirota
 

Воффка

Морской Волк

Пост 12-Фев-2012 10:34 (спустя 1 месяц 15 дней)

[Q] 

спасибо

_________________
-= Водка, шлюхи, Death Metal!!!=-
[Профиль]  [ЛС] 

Vlad__treker

Морской Волк

184

Пост 17-Июл-2012 14:31 (спустя 5 месяцев 5 дней)

[Q] 


_________________
...:::Pirat.ca:::...
..:::The Best:::...
[Профиль]  [ЛС] 

Alina23

Пост 06-Авг-2012 09:32 (спустя 19 дней)

[Q] 

прикольнийший мульт eb спасибо!!!!!!!!!!!.
[Профиль]  [ЛС] 

Почти человек

Лоцман

Пост 21-Фев-2015 18:16 (спустя 2 года 6 месяцев)

[Q] 

Спасибо большое!
p.s. сам искал может кому пригодится, хронология по вики:
Лило и Стич (2002)
Лило и Стич 2: Большая проблема Стича (2005)
Новые приключения Стича (2003)
Лило и Стич: Мультсериал (2003 – 2006)
Лерой и Стич (2006)
Стич! (2008 – 2011)
[Профиль]  [ЛС] 
Показать сообщения:    
Ответить на тему

Текущее время: Сегодня 05:04

Часовой пояс: GMT + 4



Вы не можете начинать темы
Вы не можете отвечать на сообщения
Вы не можете редактировать свои сообщения
Вы не можете удалять свои сообщения
Вы не можете голосовать в опросах
Вы не можете прикреплять файлы к сообщениям
Вы не можете скачивать файлы

▼ Вниз