ML
     
  Уважаемый Гость!
Вы можете поддержать проект и зарегистрироваться у наших партнеров - онлайн-стратегия MyLands. При регистрации в игре Вы получите код, который сможете активировать после регистрации на pirat.ca и получить 1000 дублонов.

Ваш код:
9cfe162481db953a6549f32179d7b3900b8b8643
 
     

Робинзон Крузо: Предводитель пиратов / Selkirk, el verdadero Robinson Crusoe (Уолтер Турнье / Walter Tournier) [2011 г., мультфильм, приключения, семейный, DVDRip] Dub [Лицензия]

Ответить на тему
 
Автор
Сообщение

Пост 24-Авг-2013 19:07

[Q] 

aleksey99

-Робинзон Крузо: Предводитель пиратов / Selkirk, el verdadero Robinson Crusoe-- -Производство: Уругвай, Аргентина, Чили
Год выпуска: 2011 г.
Жанр: мультфильм, приключения, семейный
Продолжительность: 01:16:06-Мировая премьера: 2 февраля 2012
Российская премьера: 25 июля 2013, «Top Film Distribution»
Дата выхода DVD: 20 августа 2013, «Lizard Cinema Trade»
Дата выхода Blu-Ray: 20 августа 2013, «Lizard Cinema Trade»-Перевод: Профессиональный (полное дублирование)[Лицензия]-Режиссер: Уолтер Турнье / Walter Tournier-Описание: Селкирк — непокорный, эгоистичный пират, штурман на английском камбузе. Он плавает по Южным морям в поисках сокровищ. После того как Капитан Буллок оставляет его на необитаемом острове и ему приходится учиться выживать в одиночку, его взгляды на мир меняются.- -Качество видео: DVDRip
Контейнер: AVI
Видео кодек: XviD
Аудио кодек: AC3
Видео: 720x400 (1.80:1), 25 fps, XviD build 50 ~2110 kbps avg, 0.29 bit/pixel
Аудио: 48 kHz, AC3 Dolby Digital, 3/2 (L,C,R,l,r) + LFE ch, ~448 kbps
Cубтитры: Отсутствуют
Общее
Полное имя : H:\Torrent2\Robinzon.Predvoditel.Piratov.2011.D.DVDRip.1400Mb[pirat.ca].avi
Формат : AVI
Формат/Информация : Audio Video Interleave
Размер файла : 1,37 Гбайт
Продолжительность : 1 ч. 16 м.
Общий поток : 2568 Кбит/сек
Программа кодирования : VirtualDubMod 1.5.10.3 | www.virtualdub-fr.org || (build 2550/release)
Библиотека кодирования : VirtualDubMod build 2550/release
Видео
Идентификатор : 0
Формат : MPEG-4 Visual
Профиль формата : Advanced [email protected]
Параметр BVOP формата : 2
Параметр QPel формата : Нет
Параметр GMC формата : Без точки перехода
Параметр матрицы формата : Default (MPEG)
Идентификатор кодека : XVID
Идентификатор кодека/Подсказка : XviD
Продолжительность : 1 ч. 16 м.
Битрейт : 2110 Кбит/сек
Ширина : 720 пикселей
Высота : 400 пикселей
Соотношение сторон : 16:9
Частота кадров : 25,000 кадров/сек
Цветовое пространство : YUV
Субдискретизация насыщенности : 4:2:0
Битовая глубина : 8 бит
Тип развёртки : Прогрессивная
Метод сжатия : С потерями
Бит/(Пиксели*Кадры) : 0.293
Размер потока : 1,12 Гбайт (82%)
Библиотека кодирования : XviD 1.2.1 (UTC 2008-12-04)
Аудио
Идентификатор : 1
Формат : AC-3
Формат/Информация : Audio Coding 3
Расширение режима : CM (complete main)
Параметр Endianness формата : Big
Идентификатор кодека : 2000
Продолжительность : 1 ч. 16 м.
Вид битрейта : Постоянный
Битрейт : 448 Кбит/сек
Каналы : 6 каналов
Расположение каналов : Front: L C R, Side: L R, LFE
Частота : 48,0 КГц
Битовая глубина : 16 бит
Метод сжатия : С потерями
Размер потока : 244 Мбайт (17%)
Выравнивание : Разделение по промежуткам
Продолжительность промежутка : 40 мс. (1,00 видеокадр)
Время предзагрузки промежутка : 500 мс.
Трейлер
Download / Скачать

Хотите скачать бесплатно? Зарегистрируйтесь на сайте (ссылка на регистрацию). Pirat.ca - самый быстрый торрент трекер в рунете!

Как скачивать  ·   Что такое торрент  ·   Рейтинг и ограничения

Пост 24-Авг-2013 20:24 (спустя 1 час 16 минут)

Топик был перенесен из форума Мультфильмы (Трюм) в форум Новинки (HD|DVD|BD| TV|SAT|PDTV| - Rips)
erchine
 

Jek@

Легенда

Пост 26-Авг-2013 11:18 (спустя 1 день 16 часов)

[Q] 

Спасибо!!! .
[Профиль]  [ЛС] 

ybrbnf207

Штурман

Пост 26-Авг-2013 11:38 (спустя 19 минут)

[Q] 

Раздающему респект!
[Профиль]  [ЛС] 

xxmoroz

Морской Волк

Пост 26-Авг-2013 20:13 (спустя 8 часов)

[Q] 

посмотрим. Надеюсь Уругвай окажется более подходящим для детей, чем иная продукция СШАстиков или порой и наш новодел...
[Профиль]  [ЛС] 

zloiaspirant

Корсар

Пост 27-Авг-2013 05:39 (спустя 9 часов)

[Q] 

Спасибо!!! Лови бочку
[Профиль]  [ЛС] 

Stalingradskii

Лоцман

Пост 28-Авг-2013 00:25 (спустя 18 часов)

[Q] 

"штурман на английском камбузе" А банан тебе не выдать?
[Профиль]  [ЛС] 

dimchik1983

Шкипер

Пост 28-Авг-2013 02:02 (спустя 1 час 36 минут)

[Q] 

Спасибо за мульт. Спасибо!!!

_________________
[Профиль]  [ЛС] 

Полтос

Флибустьер

Пост 28-Авг-2013 17:56 (спустя 15 часов)

[Q] 

Отличный мульт, годный к просмотру для всей семьи. Пусть и кукольный, но сделан добротно. Несколько неожидан взгляд автора, расширяющий произведение Дефо, что лично меня порадовало своей новизной в сравнении с другими изложениями общеизвестного сюжета. Опять же плюс - не штатовское (т.е. не штампованное и поднадаевшее) изложение, так что
Супер! Всем качать!!!

_________________
Первый закон Прапорщика: Всё что поднимаемо - относительно!)
[Профиль]  [ЛС] 

butin.peter

Штурман

Пост 28-Авг-2013 23:13 (спустя 5 часов)

[Q] 

Спасибо!!!
[Профиль]  [ЛС] 

urlas66

Морской Волк

Пост 29-Авг-2013 07:07 (спустя 7 часов)

[Q] 

Спасибо!!! Зуб даю...
[Профиль]  [ЛС] 

aleks77l

Морской Волк

Пост 30-Авг-2013 17:11 (спустя 1 день 10 часов)

[Q] 

спосибо ребенок будет рад лови бочку! Супер!
[Профиль]  [ЛС] 

xxmoroz

Морской Волк

Пост 02-Сен-2013 17:44 (спустя 3 дня)

[Q] 

а я наверное пока не буду показывать его детям. 2/3 мультика о том, как здорово поступать плохо. И около четверти - как быстро и просто стать хорошим )))
автору все равно спасибо за раздачу
[Профиль]  [ЛС] 
Показать сообщения:    
Ответить на тему

Текущее время: Сегодня 06:00

Часовой пояс: GMT + 4



Вы не можете начинать темы
Вы не можете отвечать на сообщения
Вы не можете редактировать свои сообщения
Вы не можете удалять свои сообщения
Вы не можете голосовать в опросах
Вы не можете прикреплять файлы к сообщениям
Вы не можете скачивать файлы

▼ Вниз