ML
     
  Уважаемый Гость!
Вы можете поддержать проект и зарегистрироваться у наших партнеров - онлайн-стратегия MyLands. При регистрации в игре Вы получите код, который сможете активировать после регистрации на pirat.ca и получить 1000 дублонов.

Ваш код:
c3360d664ceb84802c84b88ed062a5d134e2ba97
 
     

Ван Хельсинг. Лондонское задание / Van Helsing. The London Assignment (Шарон Бриджман) [2004 г., Мультфильм, приключения, DVDRip]

Ответить на тему
 
Автор
Сообщение

Пост 28-Дек-2011 15:21

[Q] 

Андря

Ван Хельсинг. Лондонское задание / Van Helsing. The London Assignment
Год выпуска: 2004
Страна: США
Жанр: Мультфильм, приключения
Продолжительность: 0:31:48
Перевод: Профессиональный (многоголосый, закадровый)
Режиссер: Шарон Бриджман
Описание: Анимированный фильм «Ван Хельсинг: Миссия в Лондоне» - приквел к фильму «Ван Хельзинг». Лондонское задание - история противостояния Хельсинга (его, кстати, озвучивает сам Хью Джекман) и доктора Джеккила. Заодно и с его ужасным альтер-эго монстром мистером Хайдом, расправляющихся с молодыми женщинами на ночных улицах Лондона.
Фильм "Ван Хельсинг" начинается со схватки Ван Хельсинга с доктором Джекилом - мистером Хайдом, а этот мультфильм рассказывает о том, что было до этого!!!
Доп. информация: DVD-RIP без потери качества с лицензионного DVD
Качество: DVDRip
Формат: AVI
Видео кодек: XviD
Аудио кодек: AC3
Видео: XviD, 720x384, 1609 Кбит/сек, 1,875, 25,000 кадров/сек
Аудио: 1 Русский AC-3, 384 Кбит/сек, 6 каналов, 48,0 КГц,16 бит
Аудио: 2 Английский AC-3, 384 Кбит/сек, 6 каналов, 48,0 КГц,16 бит
Общее
Полное имя : Van_Helsing.avi
Формат : AVI
Формат/Информация : Audio Video Interleave
Размер файла : 543 Мбайт
Продолжительность : 31 м.
Общий поток : 2386 Кбит/сек
Программа кодирования : VirtualDubMod 1.5.4.1 (build 2178/release)
Библиотека кодирования : VirtualDubMod build 2178/release
Видео
Идентификатор : 0
Формат : MPEG-4 Visual
Профиль формата : Advanced [email protected]
Параметр BVOP формата : 1
Параметр QPel формата : Нет
Параметр GMC формата : Без точки перехода
Параметр матрицы формата : Выборочная
Идентификатор кодека : XVID
Идентификатор кодека/Подсказка : XviD
Продолжительность : 31 м.
Битрейт : 1609 Кбит/сек
Ширина : 720 пикселей
Высота : 384 пикселя
Соотношение сторон : 1,875
Частота кадров : 25,000 кадров/сек
Цветовое пространство : YUV
Субдискретизация насыщенности : 4:2:0
Битовая глубина : 8 бит
Тип развёртки : Прогрессивная
Метод сжатия : С потерями
Бит/(Пиксели*Кадры) : 0.233
Размер потока : 366 Мбайт (67%)
Библиотека кодирования : XviD 1.2.0.dev47 (UTC 2006-11-01)
Аудио #1
Идентификатор : 1
Формат : AC-3
Формат/Информация : Audio Coding 3
Расширение режима : CM (complete main)
Идентификатор кодека : 2000
Продолжительность : 31 м.
Вид битрейта : Постоянный
Битрейт : 384 Кбит/сек
Каналы : 6 каналов
Расположение каналов : Front: L C R, Side: L R, LFE
Частота : 48,0 КГц
Битовая глубина : 16 бит
Метод сжатия : С потерями
Размер потока : 87,3 Мбайт (16%)
Выравнивание : Разделение по промежуткам
Продолжительность промежутка : 96 мс. (2,40 видеокадра)
Время предзагрузки промежутка : 96 мс.
Аудио #2
Идентификатор : 2
Формат : AC-3
Формат/Информация : Audio Coding 3
Расширение режима : CM (complete main)
Идентификатор кодека : 2000
Продолжительность : 31 м.
Вид битрейта : Постоянный
Битрейт : 384 Кбит/сек
Каналы : 6 каналов
Расположение каналов : Front: L C R, Side: L R, LFE
Частота : 48,0 КГц
Битовая глубина : 16 бит
Метод сжатия : С потерями
Размер потока : 87,3 Мбайт (16%)
Выравнивание : Разделение по промежуткам
Продолжительность промежутка : 96 мс. (2,40 видеокадра)
Время предзагрузки промежутка : 96 мс.










Download / Скачать

Хотите скачать бесплатно? Зарегистрируйтесь на сайте (ссылка на регистрацию). Pirat.ca - самый быстрый торрент трекер в рунете!

Как скачивать  ·   Что такое торрент  ·   Рейтинг и ограничения

Пост 02-Янв-2012 00:36 (спустя 4 дня)

Топик был перенесен из форума Мультипликация в форум Зарубежные полнометражные мультфильмы

CaptRom
 

XAPOH

Гроза морей

Пост 30-Дек-2012 23:28 (спустя 1 год)

[Q] 


_________________

<<<Dolus an virtus quis in hoste requirat?>>>
Intel Core i7 2600, 16Gb Ram, GTX 670, SSD.
PS4.
[Профиль]  [ЛС] 

kolking89

Морской Волк

Пост 16-Янв-2013 12:30 (спустя 16 дней)

[Q] 

мульт понравился, жалко, что продолжения нет((
[Профиль]  [ЛС] 
Показать сообщения:    
Ответить на тему

Текущее время: Сегодня 10:04

Часовой пояс: GMT + 4



Вы не можете начинать темы
Вы не можете отвечать на сообщения
Вы не можете редактировать свои сообщения
Вы не можете удалять свои сообщения
Вы не можете голосовать в опросах
Вы не можете прикреплять файлы к сообщениям
Вы не можете скачивать файлы

▼ Вниз