ML
     
  Уважаемый Гость!
Вы можете поддержать проект и зарегистрироваться у наших партнеров - онлайн-стратегия MyLands. При регистрации в игре Вы получите код, который сможете активировать после регистрации на pirat.ca и получить 1000 дублонов.

Ваш код:
0ea1bf889af42fca5f67d0a391efb3400850ad7c
 
     

Груффало / The Gruffalo (Йоханнес Вейланд, Уве Хеидсшоттер / Uwe Heidschötter, Johannes Weiland) [2011 г., мультфильм, семейный, DVDRip] Dub [Лицензия]

Ответить на тему
 
Автор
Сообщение

Пост 14-Сен-2013 05:46

[Q] 

aleksey99

-Груффало / The Gruffalo- -Производство: Великобритания, Германия / Magic Light Pictures
Год выпуска: 2011 г.
Жанр: мультфильм, семейный
Продолжительность: 00:52:46-Российская премьера: 23 мая 2013, «Мистерия Звука»
Релиз на DVD: 5 сентября 2013, «Мистерия Звука»
Релиз на Blu-Ray: 5 сентября 2013, «Мистерия Звука»-Перевод: Профессиональный (полное дублирование) [Лицензия]-Режиссер: Йоханнес Вейланд, Уве Хеидсшоттер / Uwe Heidschötter, Johannes Weiland-В ролях: Хелена Бонем Картер, Роб Брайдон, Робби Колтрейн, Джеймс Корден, Джон Хёрт, Том Уилкинсон, Ширли Хендерсон, Фиби Гиврон-Тейлор, Сэм Льюис-Описание: Волшебная история про маленького мышонка, который гулял по лесу. На его пути встают три хищника, которые мечтают ее съесть — сова, лиса и змея. Маленькому мышонку предстоит использовать все свое остроумие и смекалку, чтобы выжить.- -Качество видео: DVDRip
Контейнер: AVI
Видео кодек: XviD
Аудио кодек: MP3
Видео: 720x400 (1.80:1), 25 fps, XviD build 73 ~1835 kbps avg, 0.26 bit/pixel
Аудио: 48 kHz, MPEG Layer 3, 2 ch, ~128.00 kbps avg
Cубтитры: Отсутствуют
Общее
Полное имя : H:\P6\Gruffalo.2011.D.DVDRip.745MB_[pirat.ca].avi
Формат : AVI
Формат/Информация : Audio Video Interleave
Размер файла : 745 Мбайт
Продолжительность : 52 м.
Общий поток : 1973 Кбит/сек
Программа кодирования : VirtualDubModRus 1.5.10.2 (build 2542/release)
Библиотека кодирования : VirtualDubMod build 2542/release
Видео
Идентификатор : 0
Формат : MPEG-4 Visual
Профиль формата : Advanced [email protected]
Параметр BVOP формата : 1
Параметр QPel формата : Нет
Параметр GMC формата : Без точки перехода
Параметр матрицы формата : Выборочная
Идентификатор кодека : XVID
Идентификатор кодека/Подсказка : XviD
Продолжительность : 52 м.
Битрейт : 1836 Кбит/сек
Ширина : 720 пикселей
Высота : 400 пикселей
Соотношение сторон : 16:9
Частота кадров : 25,000 кадров/сек
Цветовое пространство : YUV
Субдискретизация насыщенности : 4:2:0
Битовая глубина : 8 бит
Тип развёртки : Прогрессивная
Метод сжатия : С потерями
Бит/(Пиксели*Кадры) : 0.255
Размер потока : 693 Мбайт (93%)
Библиотека кодирования : XviD 73
Аудио
Идентификатор : 1
Формат : MPEG Audio
Версия формата : Version 1
Профиль формата : Layer 3
Режим : Joint stereo
Расширение режима : MS Stereo
Идентификатор кодека : 55
Идентификатор кодека/Подсказка : MP3
Продолжительность : 52 м.
Вид битрейта : Постоянный
Битрейт : 128 Кбит/сек
Каналы : 2 канала
Частота : 48,0 КГц
Метод сжатия : С потерями
Размер потока : 48,3 Мбайт (6%)
Выравнивание : Соединение по промежуткам
Продолжительность промежутка : 40 мс. (1,00 видеокадр)
Время предзагрузки промежутка : 504 мс.
Библиотека кодирования : LAMEЄЄ
Трейлер
Download / Скачать

Хотите скачать бесплатно? Зарегистрируйтесь на сайте (ссылка на регистрацию). Pirat.ca - самый быстрый торрент трекер в рунете!

Как скачивать  ·   Что такое торрент  ·   Рейтинг и ограничения

Пост 14-Сен-2013 09:41 (спустя 3 часа)

Топик был перенесен из форума Мультфильмы (Трюм) в форум Новинки (HD|DVD|BD| TV|SAT|PDTV| - Rips)
erchine
 

polozm

Легенда

Пост 14-Сен-2013 10:06 (спустя 4 часа)

[Q] 

Спасибо!!!попробую осторожненько.сомнения,сомнения...

_________________
mac mini -2.0 GHz Intel Core i7/ 8 GB DDR3. /Intel HD 3000(512mb)OS X 10.9 Mavericks
[Профиль]  [ЛС] 

kovalev

Лоцман

Пост 14-Сен-2013 11:20 (спустя 1 час 13 минут)

[Q] 

Книга ребенку нравится. Посмотрим мультик...
[Профиль]  [ЛС] 

jaytro

Морской Волк

Пост 14-Сен-2013 15:31 (спустя 4 часа)

[Q] 

Спасибо!!! Лови бочку посмотрямс)
[Профиль]  [ЛС] 

polozm

Легенда

Пост 14-Сен-2013 19:32 (спустя 4 часа)

[Q] 

мне не очень понравился.дочке тоже.Нарисован прикольно вроде.А вот смысл... cr bc
книжку наверно здорово ребенку почитать а мульт затянутый

_________________
mac mini -2.0 GHz Intel Core i7/ 8 GB DDR3. /Intel HD 3000(512mb)OS X 10.9 Mavericks
[Профиль]  [ЛС] 

Aleks44

Гроза морей

Пост 16-Сен-2013 11:08 (спустя 1 день 15 часов)

[Q] 

Средний мульт нарисован красиво, вопрос без ответа откуда взялась дочь у Груффало
[Профиль]  [ЛС] 

polozm

Легенда

Пост 18-Сен-2013 10:39 (спустя 1 день 23 часа)

[Q] 

423164 вопрос без ответа откуда взялась дочь у Груффало
А я не задумывался bj bj наверно он несушка

_________________
mac mini -2.0 GHz Intel Core i7/ 8 GB DDR3. /Intel HD 3000(512mb)OS X 10.9 Mavericks
[Профиль]  [ЛС] 

sergein

Корсар

Пост 24-Сен-2013 13:12 (спустя 6 дней)

[Q] 

На любителя чета не очень моим деткам!
[Профиль]  [ЛС] 

prohodilmimo

Корсар

24

Пост 24-Сен-2013 19:32 (спустя 6 часов)

[Q] 

так ведь оно сейчас кругом так- упаковка обалденная, а внутри какашки \и те синтетические\ ac
[Профиль]  [ЛС] 

kudrjavy

Флибустьер

Пост 28-Сен-2013 22:34 (спустя 4 дня)

[Q] 

Спасибки!))посмотрим)) Спасибо!!!

_________________
Девушки-как печеньки: ломаются,пока не намокнут...
[Профиль]  [ЛС] 

zloiaspirant

Корсар

Пост 29-Сен-2013 11:16 (спустя 12 часов)

[Q] 

Огромное спасибки! Всем качать!!!
[Профиль]  [ЛС] 

Kaelis

Морской Волк

Пост 13-Окт-2013 18:45 (спустя 14 дней)

[Q] 

нарисован красиво, спасибо !!
[Профиль]  [ЛС] 

xzxscorpxzx

Флибустьер

Пост 22-Сен-2015 09:34 (спустя 1 год 11 месяцев)

[Q] 

спасибо большое! Лови бочку
[Профиль]  [ЛС] 

platon18

Гроза морей

Пост 14-Окт-2015 11:26 (спустя 22 дня)

[Q] 

мдя, отзывы не очень, спасибо что отговорили
[Профиль]  [ЛС] 
Показать сообщения:    
Ответить на тему

Текущее время: Сегодня 00:33

Часовой пояс: GMT + 4



Вы не можете начинать темы
Вы не можете отвечать на сообщения
Вы не можете редактировать свои сообщения
Вы не можете удалять свои сообщения
Вы не можете голосовать в опросах
Вы не можете прикреплять файлы к сообщениям
Вы не можете скачивать файлы

▼ Вниз