ML
     
  Уважаемый Гость!
Вы можете поддержать проект и зарегистрироваться у наших партнеров - онлайн-стратегия MyLands. При регистрации в игре Вы получите код, который сможете активировать после регистрации на pirat.ca и получить 1000 дублонов.

Ваш код:
0fcd44bd35319f69313aa6e53b31c51cbff1c942
 
     

Семейка Крудс / The Croods (Кирк де Микко, Крис Сандерс / Kirk De Micco, Chris Sanders) [2013 г., мультфильм, комедия, приключения, семейный, HDRip] Dub [Лицензия]

Ответить на тему
 
Автор
Сообщение

Пост 14-Сен-2013 06:07

[Q] 

aleksey99

-Семейка Крудс / The Croods- -Производство: США / DreamWorks Animation
Год выпуска: 2013 г.
Жанр: мультфильм, комедия, приключения, семейный
Продолжительность: 01:38:36-Премьера (мир): 15 февраля 2013
Российская премьера: 21 марта 2013, «Двадцатый Век Фокс СНГ»
Релиз на DVD: 3 октября 2013, «Двадцатый Век Фокс СНГ»
Релиз на Blu-Ray: 3 октября 2013, «Двадцатый Век Фокс СНГ»-Перевод: Профессиональный (полное дублирование) [Лицензия]-Режиссер: Кирк де Микко, Крис Сандерс / Kirk De Micco, Chris Sanders-В ролях: Эмма Стоун, Райан Рейнольдс, Николас Кейдж, Кэтрин Кинер, Клорис Личмен, Кларк Дьюк, Крис Сандерс-Описание: Землетрясение уничтожило дом доисторической семьи, и теперь Крудсам придётся искать другое пристанище. А вокруг новый и опасный мир! Им на помощь приходит молодой кочевник Малой, передовые взгляды которого наталкиваются на консервативность главы семьи Груга. Но только вместе они смогут выжить и достичь своей цели…- -Качество видео: HDRip
Контейнер: AVI
Видео кодек: XviD
Аудио кодек: AC3
Видео: 720x304 (2.37:1), 23.976 fps, XviD build 50 ~1657 kbps avg, 0.32 bit/pixel
Аудио: 48 kHz, AC3 Dolby Digital, 3/2 (L,C,R,l,r) + LFE ch, ~448 kbps
Cубтитры: Отсутствуют
Общее
Полное имя : H:\Torrent2\Semejka.Kruds.2013.D.HDRip.1400MB[pirat.ca].avi
Формат : AVI
Формат/Информация : Audio Video Interleave
Размер файла : 1,46 Гбайт
Продолжительность : 1 ч. 38 м.
Общий поток : 2115 Кбит/сек
Программа кодирования : VirtualDubMod 1.5.10.2 (build 2540/release)
Библиотека кодирования : VirtualDubMod build 2540/release
Видео
Идентификатор : 0
Формат : MPEG-4 Visual
Профиль формата : Advanced [email protected]
Параметр BVOP формата : 2
Параметр QPel формата : Нет
Параметр GMC формата : Без точки перехода
Параметр матрицы формата : Default (MPEG)
Идентификатор кодека : XVID
Идентификатор кодека/Подсказка : XviD
Продолжительность : 1 ч. 38 м.
Битрейт : 1658 Кбит/сек
Ширина : 720 пикселей
Высота : 304 пикселя
Соотношение сторон : 2,35:1
Частота кадров : 23,976 кадра/сек
Цветовое пространство : YUV
Субдискретизация насыщенности : 4:2:0
Битовая глубина : 8 бит
Тип развёртки : Прогрессивная
Метод сжатия : С потерями
Бит/(Пиксели*Кадры) : 0.316
Размер потока : 1,14 Гбайт (78%)
Библиотека кодирования : XviD 1.2.1 (UTC 2008-12-04)
Аудио
Идентификатор : 1
Формат : AC-3
Формат/Информация : Audio Coding 3
Расширение режима : CM (complete main)
Параметр Endianness формата : Big
Идентификатор кодека : 2000
Продолжительность : 1 ч. 38 м.
Вид битрейта : Постоянный
Битрейт : 448 Кбит/сек
Каналы : 6 каналов
Расположение каналов : Front: L C R, Side: L R, LFE
Частота : 48,0 КГц
Битовая глубина : 16 бит
Метод сжатия : С потерями
Размер потока : 316 Мбайт (21%)
Выравнивание : Разделение по промежуткам
Продолжительность промежутка : 42 мс. (1,00 видеокадр)
Время предзагрузки промежутка : 500 мс.
Трейлер
Download / Скачать

Хотите скачать бесплатно? Зарегистрируйтесь на сайте (ссылка на регистрацию). Pirat.ca - самый быстрый торрент трекер в рунете!

Как скачивать  ·   Что такое торрент  ·   Рейтинг и ограничения

Пост 14-Сен-2013 09:44 (спустя 3 часа)

Топик был перенесен из форума Мультфильмы (Трюм) в форум Новинки (HD|DVD|BD| TV|SAT|PDTV| - Rips)
erchine
 

Nokia C3-00

Штурман

Пост 15-Сен-2013 11:52 (спустя 1 день 5 часов)

[Q] 

спс Спасибо!!! Лови бочку
[Профиль]  [ЛС] 

rekrut26

Морской Волк

67

Пост 15-Сен-2013 22:31 (спустя 10 часов)

[Q] 

Спасибо!!! Всем качать!!! Смотрел с ребёнком в кинотеатре.Очень мелкому мульт понравился,беру в коллекцию

_________________
[Профиль]  [ЛС] 

KoJl6aca

Морской Волк

Пост 16-Сен-2013 00:10 (спустя 1 час 39 минут)

[Q] 

Спасибо!!! Супер! хороший мультик

_________________
[Профиль]  [ЛС] 

Jek@

Легенда

Пост 16-Сен-2013 05:47 (спустя 5 часов)

[Q] 

Спасибо!!! .
[Профиль]  [ЛС] 

MOPRK

Флибустьер

Пост 16-Сен-2013 18:02 (спустя 12 часов)

[Q] 

Супер! Спасибо!!! 555
[Профиль]  [ЛС] 

metampsy

Корсар

Пост 23-Сен-2013 17:58 (спустя 6 дней)

[Q] 

Хорошой мультик. Детям нравится.
[Профиль]  [ЛС] 

viktor41

Шкипер

Пост 21-Окт-2013 00:30 (спустя 27 дней)

[Q] 

Классный мульт ! Спасибо!!! Автору респект!!!
[Профиль]  [ЛС] 

Grand Zero

Морской Волк

Пост 22-Дек-2013 11:55 (спустя 2 месяца 1 день)

[Q] 

просто супер))
[Профиль]  [ЛС] 

ScorpioKZ

Шкипер

Пост 17-Фев-2014 10:05 (спустя 1 месяц 25 дней)

[Q] 

423000Смотрел с ребёнком в кинотеатре.Очень мелкому мульт понравился,беру в коллекцию
тоже в кино с дочей смотрели и ей и мне понравилось )
Всем качать!!! Автору респект!!!
[Профиль]  [ЛС] 

B A L A M U T

Юнга

Пост 17-Фев-2014 19:22 (спустя 9 часов)

[Q] 

мультик уматовый, спасибо)))
[Профиль]  [ЛС] 

Showman

Корсар

Пост 31-Янв-2015 11:10 (спустя 11 месяцев 13 дней)

[Q] 

Мульт супер! Лови бочку
[Профиль]  [ЛС] 
Показать сообщения:    
Ответить на тему

Текущее время: Сегодня 02:14

Часовой пояс: GMT + 4



Вы не можете начинать темы
Вы не можете отвечать на сообщения
Вы не можете редактировать свои сообщения
Вы не можете удалять свои сообщения
Вы не можете голосовать в опросах
Вы не можете прикреплять файлы к сообщениям
Вы не можете скачивать файлы

▼ Вниз