ML
     
  Уважаемый Гость!
Вы можете поддержать проект и зарегистрироваться у наших партнеров - онлайн-стратегия MyLands. При регистрации в игре Вы получите код, который сможете активировать после регистрации на pirat.ca и получить 1000 дублонов.

Ваш код:
2932e5898d0a27592397f70b82a5834d1e70ea19
 
     

Семейка Крудс / The Croods (Кирк де Микко, Крис Сандерс / Kirk De Micco, Chris Sanders) [2013 г., мультфильм, комедия, приключения, семейный, HDRip] Dub [Лицензия]

Ответить на тему
 
Автор
Сообщение

Пост 15-Сен-2013 16:11

[Q] 

ara1205

-Семейка Крудс / The Croods-- Производство: США
Год выпуска: 2013 г.
Жанр: мультфильм, комедия, приключения, семейный
Продолжительность: 01:38:56
Перевод: Профессиональный (полное дублирование) [Лицензия]-Режиссер: Кирк де Микко, Крис Сандерс / Kirk De Micco, Chris Sanders-Описание: Землетрясение уничтожило дом доисторической семьи, и теперь Крудсам придётся искать другое пристанище. А вокруг новый и опасный мир! Им на помощь приходит молодой кочевник Малой, передовые взгляды которого наталкиваются на консервативность главы семьи Груга. Но только вместе они смогут выжить и достичь своей цели…- -Качество видео: HDRip
Контейнер: AVI
Видео кодек: XviD
Аудио кодек: MP3
Видео: 688x288, 23,976, 919 kbps avg, 0.193 bit/pixel
Аудио: 48 kHz, MP3, 2 ch, ~128 kbps
Cубтитры: отсутствуют-
Общее
Полное имя : C:\Users\Ромик\Pictures\Семейка Крудс\Semeyka.Kruds.2013.HDRip.745Mb.avi
Формат : AVI
Формат/Информация : Audio Video Interleave
Размер файла : 745 Мбайт
Продолжительность : 1 ч. 38 м.
Общий поток : 1056 Кбит/сек
Название фильма : Semeyka.Kruds.2013.HDRip.745Mb.[pirat.ca]
Программа кодирования : VirtualDubMod 1.5.10.2 (build 2540/release)
Видео
Идентификатор : 0
Формат : MPEG-4 Visual
Профиль формата : Advanced [email protected]
Параметр BVOP формата : 2
Параметр QPel формата : Нет
Параметр GMC формата : Без точки перехода
Параметр матрицы формата : Default (MPEG)
Идентификатор кодека : XVID
Идентификатор кодека/Подсказка : XviD
Продолжительность : 1 ч. 38 м.
Битрейт : 919 Кбит/сек
Ширина : 688 пикселей
Высота : 288 пикселей
Соотношение сторон : 2,40:1
Частота кадров : 23,976 кадра/сек
Цветовое пространство : YUV
Субдискретизация насыщенности : 4:2:0
Битовая глубина : 8 бит
Тип развёртки : Прогрессивная
Метод сжатия : С потерями
Бит/(Пиксели*Кадры) : 0.193
Размер потока : 648 Мбайт (87%)
Библиотека кодирования : XviD 1.2.0.dev47 (UTC 2006-11-01)
Аудио
Идентификатор : 1
Формат : MPEG Audio
Версия формата : Version 1
Профиль формата : Layer 3
Идентификатор кодека : 55
Идентификатор кодека/Подсказка : MP3
Продолжительность : 1 ч. 38 м.
Вид битрейта : Постоянный
Битрейт : 128 Кбит/сек
Каналы : 2 канала
Частота : 48,0 КГц
Метод сжатия : С потерями
Размер потока : 90,3 Мбайт (12%)
Выравнивание : Соединение по промежуткам
Продолжительность промежутка : 42 мс. (1,00 видеокадр)
Время предзагрузки промежутка : 504 мс.
Библиотека кодирования : LAMELAME_MAJOR_VERSI
-
-
Download / Скачать

Хотите скачать бесплатно? Зарегистрируйтесь на сайте (ссылка на регистрацию). Pirat.ca - самый быстрый торрент трекер в рунете!

Как скачивать  ·   Что такое торрент  ·   Рейтинг и ограничения

Janasim

Шкипер

Пост 15-Сен-2013 21:13 (спустя 5 часов)

[Q] 

Классный мульт! Спасибо!
[Профиль]  [ЛС] 

notor

Лоцман

Пост 24-Окт-2013 01:15 (спустя 1 месяц 8 дней)

[Q] 

Заценю и оценю
[Профиль]  [ЛС] 

Kaelis

Морской Волк

Пост 24-Окт-2013 16:15 (спустя 14 часов)

[Q] 

раздающему спасибо,как всегда на высоте !!!
[Профиль]  [ЛС] 

NoNick

Штурман

Пост 06-Ноя-2013 12:49 (спустя 12 дней)

[Q] 

странно что на пиратке и нет этого мульта в авторской озвучке Сербина и Володарского ck
[Профиль]  [ЛС] 

ElSkorpio

16

Пост 08-Дек-2013 00:52 (спустя 1 месяц 1 день)

[Q] 

27 веселый

_________________
[Профиль]  [ЛС] 

Grand Zero

Морской Волк

Пост 22-Дек-2013 11:50 (спустя 14 дней)

[Q] 

!COOL! классный мульт
[Профиль]  [ЛС] 

BofRank

Корсар

535

Пост 03-Янв-2014 23:54 (спустя 12 дней)

[Q] 

Классный мульт!!..)) Супер!
[Профиль]  [ЛС] 

tayborey

Морской Волк

Пост 08-Янв-2014 19:53 (спустя 4 дня)

[Q] 

автору респект!!! aa
[Профиль]  [ЛС] 

shalonina

Гроза морей

Пост 26-Авг-2014 16:43 (спустя 7 месяцев 17 дней)

[Q] 

Спасибо!!! Автору респект!!!

_________________
[Профиль]  [ЛС] 

Sakoru

Корсар

Пост 19-Окт-2014 08:52 (спустя 1 месяц 23 дня)

[Q] 

Веселый мульт))) концовка порадовала XD)

_________________
[Профиль]  [ЛС] 

SHERHAN

683

Пост 19-Окт-2014 09:01 (спустя 8 минут)

[Q] 

мульт про среднестатисстическую пиндосскую семью)

_________________
Рыжий хищник, полосатый,
В меру наглый и усатый,
Днём и ночью он не спит,
Зорко в монитор глядит!
[Профиль]  [ЛС] 
Показать сообщения:    
Ответить на тему

Текущее время: Сегодня 08:04

Часовой пояс: GMT + 4



Вы не можете начинать темы
Вы не можете отвечать на сообщения
Вы не можете редактировать свои сообщения
Вы не можете удалять свои сообщения
Вы не можете голосовать в опросах
Вы не можете прикреплять файлы к сообщениям
Вы не можете скачивать файлы

▼ Вниз