ML
     
  Уважаемый Гость!
Вы можете поддержать проект и зарегистрироваться у наших партнеров - онлайн-стратегия MyLands. При регистрации в игре Вы получите код, который сможете активировать после регистрации на pirat.ca и получить 1000 дублонов.

Ваш код:
5af7de75d3db09b6a37bc8bab71b0e87ccde73d6
 
     

Бэтмен: Маска фантазма / Batman: Mask of the Phantasm (Эрик Радомски, Брюс В. Тимм, Кевин Алтери / Eric Radomski, Bruce W. Timm, Kevin Altieri) [1993 г., Мультфильм, Боевик, Триллер, Мелодрама, Криминал, Детектив, Семейный, HDRip] (MVO)

Ответить на тему
 
Автор
Сообщение

Пост 29-Дек-2011 15:20

[Q] 

Ksandr

Флибустьер

Бэтмен: Маска фантазма / Batman: Mask of the Phantasm
Год выпуска: 1993
Мировая премьера: 25 декабря 1993
Производство: США
Жанр: Мультфильм, Боевик, Триллер, Мелодрама, Криминал, Детектив, Семейный
Продолжительность: 01:16:56
Перевод: Профессиональный (многоголосый, закадровый)(DisneyJazz)
Режиссер: Эрик Радомски, Брюс В. Тимм, Кевин Алтери / Eric Radomski, Bruce W. Timm, Kevin Altieri
В ролях: Кевин Конрой, Дана Дилэйни, Харт Бокнер, Стейси Кич, Эйб Вигода, Дик Миллер, Джон П. Райан, Ефрем Цимбалист мл., Боб Хатингс, Роберт Костанцо
Описание: В Готэме появляется новый борец с преступностью — Фантазм, который, в отличие от Бэтмена, попросту убивает уголовников. От его руки гибнут мафиозные боссы Чаки Сол и Базз Бронски — члены старой банды, орудовавшей в городе еще до появления Человека — Летучей Мыши. Главарем банды был Сальваторе Валестра — именно он является следующей мишенью Фантазма. Идя по следу убийцы, Бэтмен приходит к выводу, что тот связан с событиями из его прошлого.
Источник/Качество: HDRip
Формат: AVI
Видео кодек: XviD
Аудио кодек: MP3
Видео: 640x352, ~998 kbps, 23,976 fps
Аудио: RUS: 2ch, 128 kbps, 48,0 КГц
Аудио #2: ENG: 2ch, 128 kbps, 48,0 КГц
Общее
Полное имя : Batman Mask of the Phantasm[pirat.ca].avi
Формат : AVI
Формат/Информация : Audio Video Interleave
Размер файла : 698 Мбайт
Продолжительность : 1 ч. 16 м.
Общий поток : 1268 Кбит/сек
Программа кодирования : VirtualDubMod 1.5.10.2 (build 2542/release)
Библиотека кодирования : VirtualDubMod build 2542/release
Видео
Идентификатор : 0
Формат : MPEG-4 Visual
Профиль формата : Advanced [email protected]
Параметр BVOP формата : 2
Параметр QPel формата : Нет
Параметр GMC формата : Без точки перехода
Параметр матрицы формата : Выборочная
Режим смешивания : Сжатый битовый поток
Идентификатор кодека : XVID
Идентификатор кодека/Подсказка : XviD
Продолжительность : 1 ч. 16 м.
Битрейт : 998 Кбит/сек
Ширина : 640 пикселей
Высота : 352 пикселя
Соотношение сторон : 16:9
Частота кадров : 23,976 кадра/сек
Частота кадров в оригинале : 29,970 кадров/сек
Цветовое пространство : YUV
Субдискретизация насыщенности : 4:2:0
Битовая глубина : 8 бит
Тип развёртки : Прогрессивная
Метод сжатия : С потерями
Бит/(Пиксели*Кадры) : 0.185
Размер потока : 549 Мбайт (79%)
Библиотека кодирования : XviD 1.1.2 (UTC 2006-11-01)
Аудио #1
Идентификатор : 1
Формат : MPEG Audio
Версия формата : Version 1
Профиль формата : Layer 3
Идентификатор кодека : 55
Идентификатор кодека/Подсказка : MP3
Продолжительность : 1 ч. 16 м.
Вид битрейта : Постоянный
Битрейт : 128 Кбит/сек
Каналы : 2 канала
Частота : 48,0 КГц
Метод сжатия : С потерями
Размер потока : 70,4 Мбайт (10%)
Выравнивание : Соединение по промежуткам
Продолжительность промежутка : 42 мс. (1,00 видеокадр)
Время предзагрузки промежутка : 504 мс.
Аудио #2
Идентификатор : 2
Формат : MPEG Audio
Версия формата : Version 1
Профиль формата : Layer 3
Идентификатор кодека : 55
Идентификатор кодека/Подсказка : MP3
Продолжительность : 1 ч. 16 м.
Вид битрейта : Постоянный
Битрейт : 128 Кбит/сек
Каналы : 2 канала
Частота : 48,0 КГц
Метод сжатия : С потерями
Размер потока : 70,4 Мбайт (10%)
Выравнивание : Соединение по промежуткам
Продолжительность промежутка : 42 мс. (1,00 видеокадр)
Время предзагрузки промежутка : 504 мс.


Релиз подготовлен:
Download / Скачать

Хотите скачать бесплатно? Зарегистрируйтесь на сайте (ссылка на регистрацию). Pirat.ca - самый быстрый торрент трекер в рунете!

Как скачивать  ·   Что такое торрент  ·   Рейтинг и ограничения

Пост 29-Дек-2011 16:21 (спустя 1 час)

Топик был перенесен из форума Мультипликация в форум Зарубежные полнометражные мультфильмы

zyyx
 

manu

Пост 14-Ноя-2013 19:12 (спустя 1 год 10 месяцев)

[Q] 

Постою на раздаче. !COOL! Спасибо!!!
[Профиль]  [ЛС] 
Показать сообщения:    
Ответить на тему

Текущее время: Сегодня 14:12

Часовой пояс: GMT + 4



Вы не можете начинать темы
Вы не можете отвечать на сообщения
Вы не можете редактировать свои сообщения
Вы не можете удалять свои сообщения
Вы не можете голосовать в опросах
Вы не можете прикреплять файлы к сообщениям
Вы не можете скачивать файлы

▼ Вниз