ML
     
  Уважаемый Гость!
Вы можете поддержать проект и зарегистрироваться у наших партнеров - онлайн-стратегия MyLands. При регистрации в игре Вы получите код, который сможете активировать после регистрации на pirat.ca и получить 1000 дублонов.

Ваш код:
8dcb839cf1b47e56d6dc42d17f26b3e4822e9aee
 
     

Магический кристалл 3D / Maaginen kristalli (Антти Хаикала / Antti Haikala) [2011 г.] (Мультфильм, фэнтези, приключения, семейный) [DVDRip] (MVO)

Страницы :  1, 2  След.

Ответить на тему
 
Автор
Сообщение

Пост 29-Дек-2011 21:15

[Q] 

Чужая

--Магический кристалл 3D / Maaginen kristalli-- Год выпуска: 2011
Мировая премьера: 18 ноября 2011
Производство: Финляндия Италия
Жанр: Мультфильм, фэнтези, приключения, семейный
Продолжительность: 01:12:40
Перевод: Профессиональный (Многоголосый закадровый)--Режиссер: Антти Хаикала / Antti Haikala--В ролях: Рауно Ахонен, Aapo Haikala, Антти Хаикала, Veikko Honkanen, Aarni Hyökki, Veeti Kallio, Santtu Karvonen, Maria Kemppainen, Joonathan Kettunen, Kiti Kokkonen...--Описание: Захватывающий анимационный фильм для всей семьи рассказывает историю похищения волшебного кристалла Санты. Магический камень позволял поздравить с Рождеством всех детей в мире одновременно и теперь Санта не знает, как быть.
Преступный замысел удалось реализовать отвратительному брату-близнецу Санты Бэзилу. Немаловажную роль в этом деле сыграл сирота Йотэн. К счастью, мальчик вовремя осознает свою ошибку и попытается исправить ситуацию. Но удастся ли ему вернуть все на свои места? Сможет ли Санта поздравить с Рождеством детей во всем мире?..-- --Источник/Качество: DVDRip
Формат: AVI
Видео кодек: XviD
Аудио кодек: AC3
Видео: 720x384 (1.88:1), 25 fps, XviD build 50 ~1141 kbps avg, 0.17 bit/pixel
Аудио: 48 kHz, AC3 Dolby Digital, 2/0 (L,R) ch, ~192 kbps
Общее
Полное имя : D:\[Chuzhaya]\Magi4eskii kristal.2011.DVDRip.XviD.[Chuzhaya].avi
Формат : AVI
Формат/Информация : Audio Video Interleave
Размер файла : 698 Мбайт
Продолжительность : 1 ч. 12 м.
Общий поток : 1343 Кбит/сек
Программа кодирования : VirtualDubMod 1.5.10.3 | www.virtualdub-fr.org || (build 2550/release)
Библиотека кодирования : VirtualDubMod build 2550/release
Видео
Идентификатор : 0
Формат : MPEG-4 Visual
Профиль формата : Advanced [email protected]
Параметр BVOP формата : 1
Параметр QPel формата : Нет
Параметр GMC формата : Без точки перехода
Параметр матрицы формата : Default (MPEG)
Идентификатор кодека : XVID
Идентификатор кодека/Подсказка : XviD
Продолжительность : 1 ч. 12 м.
Битрейт : 1142 Кбит/сек
Ширина : 720 пикс.
Высота : 384 пикс.
Соотношение сторон : 1,875
Частота кадров : 25,000 кадр/сек
Цветовое пространство : YUV
Подвыборка цветности : 4:2:0
Битовая глубина : 8 бит
Тип развёртки : Прогрессивная
Метод сжатия : С потерями
Бит/(Пиксели*Кадры) : 0.165
Размер потока : 593 Мбайт (85%)
Библиотека кодирования : XviD 1.2.1 (UTC 2008-12-04)
Аудио
Идентификатор : 1
Формат : AC-3
Формат/Информация : Audio Coding 3
Расширение режима : CM (complete main)
Идентификатор кодека : 2000
Продолжительность : 1 ч. 12 м.
Вид битрейта : Постоянный
Битрейт : 192 Кбит/сек
Канал(ы) : 2 канала(ов)
Расположение каналов : Front: L R
Частота : 48,0 КГц
Битовая глубина : 16 бит
Метод сжатия : С потерями
Размер потока : 99,8 Мбайт (14%)
Выравнивание : Разделение по промежуткам
Продолжительность промежутка : 40 мс. (1,00 видеокадр)
Время предзагрузки промежутка : 500 ms


Download / Скачать

Хотите скачать бесплатно? Зарегистрируйтесь на сайте (ссылка на регистрацию). Pirat.ca - самый быстрый торрент трекер в рунете!

Как скачивать  ·   Что такое торрент  ·   Рейтинг и ограничения



Последний раз редактировалось: Чужая (2012-04-12 15:19), всего редактировалось 1 раз

bruder

Флибустьер

Пост 29-Дек-2011 21:55 (спустя 40 минут)

[Q] 

Спасибо, радость ты наша!

_________________
[Профиль]  [ЛС] 

Armen2009

Штурман

Пост 29-Дек-2011 22:24 (спустя 29 минут)

[Q] 

Спасибо за мультик,посмотрю с дочкой .. ay ay ay
[Профиль]  [ЛС] 

dimonpa

Гроза морей

Пост 30-Дек-2011 07:24 (спустя 8 часов)

[Q] 

Одобрямс !!! Спасибо!!!
[Профиль]  [ЛС] 

Aleks44

Гроза морей

Пост 30-Дек-2011 23:47 (спустя 16 часов)

[Q] 

Так не особо раз глянуть
[Профиль]  [ЛС] 

Воффка

Морской Волк

Пост 08-Янв-2012 16:58 (спустя 8 дней)

[Q] 

Спасибо! Хоть на разок мелкого займу

_________________
-= Водка, шлюхи, Death Metal!!!=-
[Профиль]  [ЛС] 

Ветер Юг

Лоцман

Пост 09-Янв-2012 01:36 (спустя 8 часов)

[Q] 

Спасибо.Ты как всегда супер!
[Профиль]  [ЛС] 

polozm

Легенда

Пост 09-Янв-2012 12:49 (спустя 11 часов)

[Q] 

спасибо.качну!!!

_________________
mac mini -2.0 GHz Intel Core i7/ 8 GB DDR3. /Intel HD 3000(512mb)OS X 10.9 Mavericks
[Профиль]  [ЛС] 

Александр44

Корсар

Пост 17-Янв-2012 23:58 (спустя 8 дней)

[Q] 

Качаю))
[Профиль]  [ЛС] 

bull271174

Флибустьер

Пост 25-Янв-2012 12:16 (спустя 7 дней)

[Q] 

Спасибо!!!!
[Профиль]  [ЛС] 

daeron1488

Шкипер

Пост 25-Янв-2012 12:22 (спустя 6 минут)

[Q] 

как кино?
[Профиль]  [ЛС] 

BAMBU4a

Морской Волк

262

Пост 25-Янв-2012 15:57 (спустя 3 часа)

[Q] 

ЧУЖАЯ ты как конвеер! Спасибо!

_________________

PEREDOVAYA.COM.UA
[Профиль]  [ЛС] 

baltimor337

Корсар

Пост 25-Янв-2012 18:48 (спустя 2 часа 51 минута)

[Q] 

спасибо
[Профиль]  [ЛС] 

sd535

Флибустьер

1796

Пост 25-Янв-2012 23:10 (спустя 4 часа)

[Q] 

[Профиль]  [ЛС] 

Artreds

Корсар

808

Пост 26-Янв-2012 08:18 (спустя 9 часов)

[Q] 

Спасибо, средненько.

_________________

[Профиль]  [ЛС] 

Pippo48

Корсар

Пост 26-Янв-2012 15:31 (спустя 7 часов)

[Q] 

Фильм, не для самых маленьких, больше всего не понравилась белка, но на один просмотр сойдет.
[Профиль]  [ЛС] 

Aleks44

Гроза морей

Пост 27-Янв-2012 02:19 (спустя 10 часов)

[Q] 

Нормально пойдет все новый мульт ребенку
[Профиль]  [ЛС] 

serafim7

Корсар

99

Пост 27-Янв-2012 11:51 (спустя 9 часов)

[Q] 

сенкс
[Профиль]  [ЛС] 

Kaelis

Морской Волк

Пост 27-Янв-2012 16:18 (спустя 4 часа)

[Q] 

спасяб ))
[Профиль]  [ЛС] 

KIRST

Корсар

Пост 27-Янв-2012 18:59 (спустя 2 часа 41 минута)

[Q] 

Спасибо
[Профиль]  [ЛС] 

wirtual

Гроза морей

Пост 29-Янв-2012 11:44 (спустя 1 день 16 часов)

[Q] 

поглядим

_________________
не будешь делиться - останешься одноклеточным
[Профиль]  [ЛС] 

григмак

Лоцман

Пост 29-Янв-2012 16:46 (спустя 5 часов)

[Q] 

спасибо
[Профиль]  [ЛС] 

sindoyun

Штурман

Пост 29-Янв-2012 23:32 (спустя 6 часов)

[Q] 

:04:

_________________
Подпись отключена за нарушение правил форума
[Профиль]  [ЛС] 

xab81

Лоцман

Пост 30-Янв-2012 23:06 (спустя 23 часа)

[Q] 

[Профиль]  [ЛС] 

rulespb

Шкипер

43

Пост 31-Янв-2012 00:13 (спустя 1 час 6 минут)

[Q] 

нормалды) мне понравился!)
[Профиль]  [ЛС] 

berezeca

Корсар

Пост 31-Янв-2012 20:45 (спустя 20 часов)

[Q] 

Спасибо.
[Профиль]  [ЛС] 

kisu

Гроза морей

Пост 01-Фев-2012 11:12 (спустя 14 часов)

[Q] 

как мульт-то?
[Профиль]  [ЛС] 

LORD OR

Корсар

Пост 03-Фев-2012 21:06 (спустя 2 дня 9 часов)

[Q] 

[Профиль]  [ЛС] 

enson3

Шкипер

Пост 04-Фев-2012 17:21 (спустя 20 часов)

[Q] 

[Профиль]  [ЛС] 

megabanan

Морской Волк

Пост 05-Фев-2012 15:28 (спустя 22 часа)

[Q] 

благодарю

_________________
[Профиль]  [ЛС] 
Показать сообщения:    
Ответить на тему

Текущее время: Сегодня 04:14

Часовой пояс: GMT + 4



Вы не можете начинать темы
Вы не можете отвечать на сообщения
Вы не можете редактировать свои сообщения
Вы не можете удалять свои сообщения
Вы не можете голосовать в опросах
Вы не можете прикреплять файлы к сообщениям
Вы не можете скачивать файлы

▼ Вниз