ML
     
  Уважаемый Гость!
Вы можете поддержать проект и зарегистрироваться у наших партнеров - онлайн-стратегия MyLands. При регистрации в игре Вы получите код, который сможете активировать после регистрации на pirat.ca и получить 1000 дублонов.

Ваш код:
8b752b428cf60a012c159dcae592cd1392170115
 
     

Пиноккио / Pinocchio (Энцо Д’Ало / Enzo D'Alò) [2012 г., мультфильм, фэнтези, HDRip] MVO [Лицензия]

Ответить на тему
 
Автор
Сообщение

Пост 15-Окт-2013 14:14

[Q] 

aleksey99

-Пиноккио / Pinocchio- Производство: Италия, Бельгия, Франция, Люксембург, 2d3D Animations, Cometa Film, Iris Productions, Walking The Dog
Год выпуска: 2013 г.
Жанр: мультфильм, фэнтези
Продолжительность: 01:20:32--Мировая премьера: 30 августа 2012
Релиз на DVD: 10 октября 2013, «CP Дистрибуция»--Перевод: Профессиональный (многоголосый, закадровый) [Лицензия]-Режиссер: Энцо Д’Ало / Enzo D'Alò--В ролях: Роберт Нэйлор, Рокко Папалео, Паоло Руффини--Описание: Однажды безоблачной ночью старый Джепетто замечтался, глядя в небеса на сверкающие звезды. Он загадал желание, чтобы вырезанный из дерева мальчик Пиноккио ожил и стал ему настоящим сыном, о котором он мечтал всю свою жизнь. И его желание, наконец, сбылось. Поучительную сказку про Пиноккио знают дети и взрослые всего мира. Маленький деревянный человечек заставил поверить людей в чудеса и доказал, что добро всегда побеждает, а мечты сбываются, нужно только сильно верить в это.-- --Качество видео: HDRip
Контейнер: AVI
Видео кодек: XviD
Аудио кодек: AC3
Видео: 720x384 (1.88:1), 24.000 fps, XviD build 73 ~2031 kbps avg, 0.31 bit/pixel
Аудио: 48 kHz, AC3 Dolby Digital, 3/2 (L,C,R,l,r) + LFE ch, ~448 kbps
Cубтитры: отсутствуют
Общее
Полное имя : H:\Torrent2\Pinokkio.2012.P.HDRip_[pirat.ca].avi
Формат : AVI
Формат/Информация : Audio Video Interleave
Размер файла : 1,46 Гбайт
Продолжительность : 1 ч. 23 м.
Общий поток : 2489 Кбит/сек
Программа кодирования : VirtualDubModRus 1.5.10.2 (build 2542/release)
Библиотека кодирования : VirtualDubMod build 2542/release
Видео
Идентификатор : 0
Формат : MPEG-4 Visual
Профиль формата : Advanced [email protected]
Параметр BVOP формата : 1
Параметр QPel формата : Нет
Параметр GMC формата : Без точки перехода
Параметр матрицы формата : Выборочная
Идентификатор кодека : XVID
Идентификатор кодека/Подсказка : XviD
Продолжительность : 1 ч. 23 м.
Битрейт : 2031 Кбит/сек
Ширина : 720 пикселей
Высота : 384 пикселя
Соотношение сторон : 1,85:1
Частота кадров : 24,000 кадра/сек
Цветовое пространство : YUV
Субдискретизация насыщенности : 4:2:0
Битовая глубина : 8 бит
Тип развёртки : Прогрессивная
Метод сжатия : С потерями
Бит/(Пиксели*Кадры) : 0.306
Размер потока : 1,19 Гбайт (82%)
Библиотека кодирования : XviD 73
Аудио
Идентификатор : 1
Формат : AC-3
Формат/Информация : Audio Coding 3
Расширение режима : CM (complete main)
Параметр Endianness формата : Big
Идентификатор кодека : 2000
Продолжительность : 1 ч. 23 м.
Вид битрейта : Постоянный
Битрейт : 448 Кбит/сек
Каналы : 6 каналов
Расположение каналов : Front: L C R, Side: L R, LFE
Частота : 48,0 КГц
Битовая глубина : 16 бит
Метод сжатия : С потерями
Размер потока : 269 Мбайт (18%)
Выравнивание : Разделение по промежуткам
Продолжительность промежутка : 42 мс. (1,00 видеокадр)
Время предзагрузки промежутка : 500 мс.
Трейлер
Download / Скачать

Хотите скачать бесплатно? Зарегистрируйтесь на сайте (ссылка на регистрацию). Pirat.ca - самый быстрый торрент трекер в рунете!

Как скачивать  ·   Что такое торрент  ·   Рейтинг и ограничения

Пост 15-Окт-2013 15:19 (спустя 1 час 4 минуты)

Топик был перенесен из форума Мультфильмы (Трюм) в форум Новинки (HD|DVD|BD| TV|SAT|PDTV| - Rips)
ara1205
 

polozm

Легенда

Пост 15-Окт-2013 16:53 (спустя 2 часа 38 минут)

[Q] 

спасибо большое

_________________
mac mini -2.0 GHz Intel Core i7/ 8 GB DDR3. /Intel HD 3000(512mb)OS X 10.9 Mavericks
[Профиль]  [ЛС] 

Kaelis

Морской Волк

Пост 15-Окт-2013 17:13 (спустя 19 минут)

[Q] 

супер,спасибо ))
[Профиль]  [ЛС] 

maaximkaa

Корсар

Пост 15-Окт-2013 17:20 (спустя 7 минут)

[Q] 

по скринам - это какая то помесь пиноккио и буратино - непомню я в пиннокио лису и кота - может я конечно ошибаюсь..
[Профиль]  [ЛС] 

Zha-pol

Легенда

Пост 15-Окт-2013 20:08 (спустя 2 часа 48 минут)

[Q] 

maaximkaa, Точно , там ему кажется фея обещала его мальчиком сделать)

_________________
[Профиль]  [ЛС] 

kolobok0

Морской Волк

151

Пост 16-Окт-2013 07:32 (спустя 11 часов)

[Q] 

вот такой он современный мульт-кинематограф, бессмысленный и беспощадный
[Профиль]  [ЛС] 

Apostalic

Лоцман

Пост 16-Окт-2013 19:09 (спустя 11 часов)

[Q] 

Сначала думал, что производство Голландия...а таки нет.
[Профиль]  [ЛС] 

wirtual

Гроза морей

Пост 16-Окт-2013 19:37 (спустя 28 минут)

[Q] 

што та по скринам страшновато маленьким детишкам наверно будет

_________________
не будешь делиться - останешься одноклеточным
[Профиль]  [ЛС] 

Jek@

Легенда

Пост 17-Окт-2013 10:53 (спустя 15 часов)

[Q] 

Спасибо!!! .
[Профиль]  [ЛС] 

xxmoroz

Морской Волк

Пост 17-Окт-2013 21:26 (спустя 10 часов)

[Q] 

придется, как обычно, сначала самому смотреть, прежде чем показывать детям... Автору раздачи в любом случае спасибо aa
[Профиль]  [ЛС] 

Vinyard

Корсар

Пост 18-Окт-2013 09:06 (спустя 11 часов)

[Q] 

скрины настораживают . будем тестить с женой ночью, прежде чем ребенку показать
[Профиль]  [ЛС] 

LeNine

Штурман

Пост 18-Окт-2013 15:37 (спустя 6 часов)

[Q] 

437003скрины настораживают . будем тестить с женой ночью, прежде чем ребенку показать
Ночью с женой другое надо тестить! =) (Извините не удержался)
[Профиль]  [ЛС] 

Дмитрий000

Шкипер

Пост 18-Окт-2013 20:18 (спустя 4 часа)

[Q] 

ПОСМОТРИМ!!!качество норм???
[Профиль]  [ЛС] 

MaXoR

Флибустьер

1472

Пост 20-Окт-2013 18:59 (спустя 1 день 22 часа)

[Q] 

Адовое зло =)

_________________
Живы будем - не помрем!
[Профиль]  [ЛС] 
Показать сообщения:    
Ответить на тему

Текущее время: Сегодня 06:18

Часовой пояс: GMT + 4



Вы не можете начинать темы
Вы не можете отвечать на сообщения
Вы не можете редактировать свои сообщения
Вы не можете удалять свои сообщения
Вы не можете голосовать в опросах
Вы не можете прикреплять файлы к сообщениям
Вы не можете скачивать файлы

▼ Вниз