ML
     
  Уважаемый Гость!
Вы можете поддержать проект и зарегистрироваться у наших партнеров - онлайн-стратегия MyLands. При регистрации в игре Вы получите код, который сможете активировать после регистрации на pirat.ca и получить 1000 дублонов.

Ваш код:
34514219cfad5497a1822ecc1269bea77988f9aa
 
     

Спасти Землю / Echo Planet (Компин Кемгумнирд / Kompin Kemgumnird) [2012 г., мультфильм, DVDRip] Dub [лицензия]

Ответить на тему
 
Автор
Сообщение

Пост 16-Окт-2013 06:46

[Q] 

aleksey99

-Спасти Землю / Echo Planet-«Они - последняя надежда планеты!»- -Производство: Таиланд, Golden Network Asia
Год выпуска: 2012 г.
Жанр: мультфильм
Продолжительность: 01:18:18-Мировая премьера: 2 августа 2012
Российская премьера: 12 сентября 2013, «Наше Кино»
Релиз на DVD: 17 октября 2013, «CD Land»-Перевод: Профессиональный (полное дублирование) [лицензия]-Режиссер: Компин Кемгумнирд / Kompin Kemgumnird-В ролях: Ноппан Чантасорн, Атхипич Чутиваткаджорнчай, Конгдей Джатуранрасаме, Тходсапол Сирививат, Нуэнгтхида Сопхон-Описание: Простой американский мальчик, Сэмуэл Джонсон младший, вступил в бойскауты и пропал во время похода. Правда, он сын президента, так что он не может пропасть просто так — и обязательно найдет выход. Сэм провалился сквозь землю и оказался на противоположном конце света- в непроходимых джунглях. Именно там его ожидает страшное известие — из-за того, что люди перестали беречь Землю наша планета в опасности и только он может ее спасти. А помогать ему в этом нелегком деле будет бесстрашная воительница Нарва со своим братом. Друзей ждут необыкновенны приключения и практически нереальная задача — cпасти Землю, когда против тебя весь мир.- -Качество видео: DVDRip
Контейнер: AVI
Видео кодек: XviD
Аудио кодек: AC3
Видео: 720x304 (2.37:1), 25 fps, XviD build 50 ~2233 kbps avg, 0.41 bit/pixel
Аудио: 48 kHz, AC3 Dolby Digital, 3/2 (L,C,R,l,r) + LFE ch, ~256 kbps
Cубтитры: Отсутствуют
Общее
Полное имя : H:\Torrent2\Spasti.zemlu.2012.D.DVDRip.1400MB_[pirat.ca].avi
Формат : AVI
Формат/Информация : Audio Video Interleave
Размер файла : 1,37 Гбайт
Продолжительность : 1 ч. 18 м.
Общий поток : 2499 Кбит/сек
Программа кодирования : VirtualDubMod 1.5.10.2 (build 2540/release)
Видео
Идентификатор : 0
Формат : MPEG-4 Visual
Профиль формата : Advanced [email protected]
Параметр BVOP формата : 2
Параметр QPel формата : Нет
Параметр GMC формата : Без точки перехода
Параметр матрицы формата : Выборочная
Идентификатор кодека : XVID
Идентификатор кодека/Подсказка : XviD
Продолжительность : 1 ч. 18 м.
Битрейт : 2234 Кбит/сек
Ширина : 720 пикселей
Высота : 304 пикселя
Соотношение сторон : 2,35:1
Частота кадров : 25,000 кадров/сек
Цветовое пространство : YUV
Субдискретизация насыщенности : 4:2:0
Битовая глубина : 8 бит
Тип развёртки : Прогрессивная
Метод сжатия : С потерями
Бит/(Пиксели*Кадры) : 0.408
Размер потока : 1,22 Гбайт (89%)
Библиотека кодирования : XviD 1.2.1 (UTC 2008-12-04)
Аудио
Идентификатор : 1
Формат : AC-3
Формат/Информация : Audio Coding 3
Расширение режима : CM (complete main)
Параметр Endianness формата : Big
Идентификатор кодека : 2000
Продолжительность : 1 ч. 18 м.
Вид битрейта : Постоянный
Битрейт : 256 Кбит/сек
Каналы : 6 каналов
Расположение каналов : Front: L C R, Side: L R, LFE
Частота : 48,0 КГц
Битовая глубина : 16 бит
Метод сжатия : С потерями
Размер потока : 143 Мбайт (10%)
Выравнивание : Разделение по промежуткам
Продолжительность промежутка : 40 мс. (1,00 видеокадр)
Время предзагрузки промежутка : 500 мс.
Трейлер
Download / Скачать

Хотите скачать бесплатно? Зарегистрируйтесь на сайте (ссылка на регистрацию). Pirat.ca - самый быстрый торрент трекер в рунете!

Как скачивать  ·   Что такое торрент  ·   Рейтинг и ограничения

polozm

Легенда

Пост 16-Окт-2013 13:10 (спустя 6 часов)

[Q] 

Простой американский мальчик, Сэмуэл Джонсон
А почему тайланд не снял про простого тайландского мальчика??? ag bj
Спасибо!скачну дочке

_________________
mac mini -2.0 GHz Intel Core i7/ 8 GB DDR3. /Intel HD 3000(512mb)OS X 10.9 Mavericks
[Профиль]  [ЛС] 

dimonpa

Гроза морей

Пост 16-Окт-2013 13:32 (спустя 21 минута)

[Q] 

Прикольный мульт Автору респект!!!
[Профиль]  [ЛС] 

BFGamer

Штурман

Пост 16-Окт-2013 15:33 (спустя 2 часа)

[Q] 

Спасибо!
Лови бочку
[Профиль]  [ЛС] 

gis

Корсар

Пост 16-Окт-2013 16:25 (спустя 51 минута)

[Q] 

Посмотрим, спасибо!
[Профиль]  [ЛС] 

viktor41

Шкипер

Пост 16-Окт-2013 17:27 (спустя 1 час 2 минуты)

[Q] 

Спасибо ! az dj
[Профиль]  [ЛС] 

Kaelis

Морской Волк

Пост 16-Окт-2013 18:03 (спустя 36 минут)

[Q] 

спасибо. щас заценим ))
Автору респект!!!
[Профиль]  [ЛС] 

wirtual

Гроза морей

Пост 16-Окт-2013 19:33 (спустя 1 час 29 минут)

[Q] 

поглядим Автору респект!!!

_________________
не будешь делиться - останешься одноклеточным
[Профиль]  [ЛС] 

Sector_X

Гроза морей

309

Пост 16-Окт-2013 21:33 (спустя 1 час 59 минут)

[Q] 

На самом деле прикольный мультфильм Автору респект!!! Спасибо!!!

_________________
[Профиль]  [ЛС] 

Jek@

Легенда

Пост 17-Окт-2013 10:52 (спустя 13 часов)

[Q] 

Спасибо!!! .
[Профиль]  [ЛС] 

tayborey

Морской Волк

Пост 12-Дек-2013 19:37 (спустя 1 месяц 26 дней)

[Q] 

Прикольно!!! Автору респект!!!
[Профиль]  [ЛС] 

Zetvelkras

Шкипер

Пост 07-Май-2014 17:30 (спустя 4 месяца 25 дней)

[Q] 

Спасибо огромное Автору респект!!!
[Профиль]  [ЛС] 
Показать сообщения:    
Ответить на тему

Текущее время: Сегодня 07:56

Часовой пояс: GMT + 4



Вы не можете начинать темы
Вы не можете отвечать на сообщения
Вы не можете редактировать свои сообщения
Вы не можете удалять свои сообщения
Вы не можете голосовать в опросах
Вы не можете прикреплять файлы к сообщениям
Вы не можете скачивать файлы

▼ Вниз