ML
     
  Уважаемый Гость!
Вы можете поддержать проект и зарегистрироваться у наших партнеров - онлайн-стратегия MyLands. При регистрации в игре Вы получите код, который сможете активировать после регистрации на pirat.ca и получить 1000 дублонов.

Ваш код:
2932e5898d0a27592397f70b82a5834d1e70ea19
 
     

Гадкий Я 2 / Despicable Me 2 (Пьер Соффин / Pierre Coffin, Крис Рено / Chris Renaud) [2013 г., мультфильм, фантастика, комедия, криминал, приключения, семейный, HDRip] Dub [Лицензия]

Ответить на тему
 
Автор
Сообщение

Пост 20-Окт-2013 16:32

[Q] 

ara1205

-Гадкий Я 2 / Despicable Me 2-- Производство: США
Год выпуска: 2013 г.
Жанр: мультфильм, фантастика, комедия, криминал, приключения, семейный
Продолжительность: 01:37:58
Дата выхода DVD: 31 октября 2013
Перевод: Профессиональный (полное дублирование) [Лицензия]-Режиссер: Пьер Соффин / Pierre Coffin, Крис Рено / Chris Renaud-Роли дублировали: Сергей Бурунов, Владимир Еремин, Лиза Мартиросова, Диомид Виноградов, Прохор Чеховской-Описание: В то время как Грю, бывший суперзлодей, приспосабливается к семейной жизни и пытается честным трудом зарабатывать в сфере бизнеса, тайные лаборатории Арктики оказываются украденными. Анти-Злодейская лига решает, что она нуждается в помощи Грю и его новобранцев в расследовании.- -Качество видео: HDRip
Контейнер: AVI
Видео кодек: XviD
Аудио кодек: MP3
Видео: 688x368, 23,976 fps, 925 kbps avg, 0.152 bit/pixel
Аудио: 48 kHz, MP3, 2 ch, ~128 kbps
Cубтитры: отсутствуют-
Общее
Полное имя : C:\Users\Ромик\Pictures\Гадкий я 2\Gadkiy.Ya.II.2013.HDRip.745Mb.[pirat.ca].avi
Формат : AVI
Формат/Информация : Audio Video Interleave
Размер файла : 745 Мбайт
Продолжительность : 1 ч. 37 м.
Общий поток : 1062 Кбит/сек
Название фильма : Gadkiy.Ya.II.2013.HDRip.745Mb.[pirat.ca].Semple
Программа кодирования : VirtualDubMod 1.5.10.2 (build 2540/release)
Видео
Идентификатор : 0
Формат : MPEG-4 Visual
Профиль формата : Advanced [email protected]
Параметр BVOP формата : 2
Параметр QPel формата : Нет
Параметр GMC формата : Без точки перехода
Параметр матрицы формата : Default (MPEG)
Идентификатор кодека : XVID
Идентификатор кодека/Подсказка : XviD
Продолжительность : 1 ч. 37 м.
Битрейт : 925 Кбит/сек
Ширина : 688 пикселей
Высота : 368 пикселей
Соотношение сторон : 1,85:1
Частота кадров : 23,976 кадра/сек
Цветовое пространство : YUV
Субдискретизация насыщенности : 4:2:0
Битовая глубина : 8 бит
Тип развёртки : Прогрессивная
Метод сжатия : С потерями
Бит/(Пиксели*Кадры) : 0.152
Размер потока : 648 Мбайт (87%)
Библиотека кодирования : XviD 1.2.0.dev47 (UTC 2006-11-01)
Аудио
Идентификатор : 1
Формат : MPEG Audio
Версия формата : Version 1
Профиль формата : Layer 3
Идентификатор кодека : 55
Идентификатор кодека/Подсказка : MP3
Продолжительность : 1 ч. 37 м.
Вид битрейта : Постоянный
Битрейт : 128 Кбит/сек
Каналы : 2 канала
Частота : 48,0 КГц
Метод сжатия : С потерями
Размер потока : 89,7 Мбайт (12%)
Выравнивание : Соединение по промежуткам
Продолжительность промежутка : 42 мс. (1,00 видеокадр)
Время предзагрузки промежутка : 504 мс.
Библиотека кодирования : LAMELAME_MAJOR_VERSI
-
-
Download / Скачать

Хотите скачать бесплатно? Зарегистрируйтесь на сайте (ссылка на регистрацию). Pirat.ca - самый быстрый торрент трекер в рунете!

Как скачивать  ·   Что такое торрент  ·   Рейтинг и ограничения

Doctor-ZLO

Гроза морей

438

Пост 20-Окт-2013 17:12 (спустя 40 минут)

[Q] 

спасибо,забираю))) Всем качать!!!

_________________
[Профиль]  [ЛС] 

yulya230784

Морской Волк

927

Пост 20-Окт-2013 19:39 (спустя 2 часа 26 минут)

[Q] 

Спасибо, отличный мульт, мне больше первой части понравилось.
[Профиль]  [ЛС] 

clubhead85

Шкипер

Пост 20-Окт-2013 20:18 (спустя 39 минут)

[Q] 

спасибо,отличный мульт!!
[Профиль]  [ЛС] 

восточка

Лоцман

Пост 21-Окт-2013 10:57 (спустя 14 часов)

[Q] 

Спасибо огромное!дочь будет в восторге!
[Профиль]  [ЛС] 

андрей иванов

Морской Волк

Пост 21-Окт-2013 11:50 (спустя 53 минуты)

[Q] 

спасибо большое)))))))))
[Профиль]  [ЛС] 

Voodoo3dfx

Шкипер

56

Пост 23-Окт-2013 14:07 (спустя 2 дня 2 часа)

[Q] 

Спасибо!!! круто) спасибо)
[Профиль]  [ЛС] 

fishman

Корсар

Пост 23-Окт-2013 18:29 (спустя 4 часа)

[Q] 

Спасибо!
Рому на борт отгрузил!

_________________
|___|___|___|___|___|___|___|__|__
__|__|__|_Биться головой_|___|___|
|___|___|___|__сюда!!___|___|__|__
__|___|___|___|___|___|___|__|__
[Профиль]  [ЛС] 

tayborey

Морской Волк

Пост 30-Окт-2013 16:52 (спустя 6 дней)

[Q] 

Автору респект!!! Мульт отличный!!!
[Профиль]  [ЛС] 

Незнайка

Флибустьер

Пост 30-Окт-2013 17:01 (спустя 9 минут)

[Q] 

Зачет автору Спасибо!!!
[Профиль]  [ЛС] 

mesio

Лоцман

Пост 30-Окт-2013 17:06 (спустя 4 минуты)

[Q] 

Спасибо!!! от души ваще
[Профиль]  [ЛС] 

Hausser

Гроза морей

Пост 03-Ноя-2013 19:50 (спустя 4 дня)

[Q] 

Дочери понравился Лови бочку
[Профиль]  [ЛС] 

volkodav-10

Корсар

Пост 04-Ноя-2013 11:46 (спустя 15 часов)

[Q] 

Супер! Лови бочку С удовольствием посмотрел.

_________________
Каждому своё.
[Профиль]  [ЛС] 

Совунья

Морской Волк

Пост 08-Ноя-2013 11:41 (спустя 3 дня)

[Q] 

Интересный мульт! Раздающему респект!

_________________
Я верю в честность Президента, и в неподкупность постовых! В заботу банка о клиентах. В вампиров верю, в домовых.
[Профиль]  [ЛС] 

fenix21r

Штурман

15

Пост 17-Ноя-2013 00:10 (спустя 8 дней)

[Q] 

Мульт отличный + 5 стоит своего времени.

_________________
[Профиль]  [ЛС] 

ALEHAN

Легенда

Пост 28-Ноя-2013 11:04 (спустя 11 дней)

[Q] 

достойное продолжение
[Профиль]  [ЛС] 

OlegSh

Морской Волк

Пост 07-Дек-2013 18:33 (спустя 9 дней)

[Q] 

СУПЕР СУПЕР надо посмотреть
[Профиль]  [ЛС] 

C0y0te

1422

Пост 08-Дек-2013 15:43 (спустя 21 час)

[Q] 

спасибо!! Автору респект!!!
[Профиль]  [ЛС] 

LVadim

Штурман

Пост 14-Дек-2013 21:17 (спустя 6 дней)

[Q] 

Спс! Лови бочку
[Профиль]  [ЛС] 

metampsy

Корсар

Пост 20-Янв-2014 01:46 (спустя 1 месяц 5 дней)

[Q] 

Классный мульт. Ребенок до дыр засмотрел!
[Профиль]  [ЛС] 
Показать сообщения:    
Ответить на тему

Текущее время: Сегодня 07:58

Часовой пояс: GMT + 4



Вы не можете начинать темы
Вы не можете отвечать на сообщения
Вы не можете редактировать свои сообщения
Вы не можете удалять свои сообщения
Вы не можете голосовать в опросах
Вы не можете прикреплять файлы к сообщениям
Вы не можете скачивать файлы

▼ Вниз