ML
     
  Уважаемый Гость!
Вы можете поддержать проект и зарегистрироваться у наших партнеров - онлайн-стратегия MyLands. При регистрации в игре Вы получите код, который сможете активировать после регистрации на pirat.ca и получить 1000 дублонов.

Ваш код:
ba41f7961e0b4717aed6a401d955262223b8f6c4
 
     

Балбесы / Olsen Banden på de bonede gulve (Юрген Лердам / Jørgen Lerdam) [2010 г., Мультфильм, Комедия, Криминал, DVDRip] (Dub)

Ответить на тему
 
Автор
Сообщение

Пост 31-Дек-2011 14:42

[Q] 

Ksandr

Флибустьер

Балбесы / Olsen Banden på de bonede gulve
Год выпуска: 2010
Мировая премьера: 15 октября 2010
Российская премьера: 24 марта 2011
Дата выхода DVD: 20 апреля 2011
Производство: Дания
Жанр: Мультфильм, Комедия, Криминал
Продолжительность: 01:14:59
Перевод: Профессиональный (полное дублирование)
Режиссер: Юрген Лердам / Jørgen Lerdam
В ролях: Мартин Бух, Николай Кристенсен, Esben Pretzmann, Аннетт Хеик, Альберт С. Ланд, Йонас Шмидт, Сёрен Сэттер-Лассен, Henrik Lykkegaard, Мик Огендаль, Саймон Джул Ёргенсон
Описание: Эгон Ольсен — криминальный гений и закоренелый преступник. Его постоянные подельники — Бенни и Кельд, парочка глупых и абсолютно безвредных воришек, никогда не прибегающих к насилию. К сожалению, филигранно продуманные операции Ольсена терпят фиаско с завидной регулярностью, но всякий раз, отмотав срок, компания неунывающих неудачников объединяется, чтобы реализовывать очередной «гениальный» план обогащения.
На сей раз банда Ольсена решает похитить мемориальное перо, которым были написаны лучшие произведения легендарного сказочника Ганса Христиана Андерсена. Но хитроумная операция опять пошла не тем путем! В дело оказались впутаны китайский магнат, датская королева и продажный премьер-министр. Удастся ли Эгону избежать ареста? Или вместо увильнувшей от полиции «крупной рыбы» ему опять придется выступить «козлом отпущения»?..
Источник/Качество: DVDRip
Формат: AVI
Видео кодек: XviD
Аудио кодек: AC3
Видео: 720x384, ~2008 kbps, 25,000 fps
Аудио: RUS:6ch, 384 kbps, 48,0 КГц
Аудио #2: DAN:6ch, 384 kbps, 48,0 КГц
Общее
Полное имя : Olsen Banden på de bonede gulve[pirat.ca].avi
Формат : AVI
Формат/Информация : Audio Video Interleave
Размер файла : 1,46 Гбайт
Продолжительность : 1 ч. 14 м.
Общий поток : 2790 Кбит/сек
Программа кодирования : VirtualDubMod 1.5.10.3 (build 2550/release)
Библиотека кодирования : VirtualDubMod build 2550/release
Видео
Идентификатор : 0
Формат : MPEG-4 Visual
Профиль формата : Advanced [email protected]
Параметр BVOP формата : 1
Параметр QPel формата : Нет
Параметр GMC формата : Без точки перехода
Параметр матрицы формата : Выборочная
Идентификатор кодека : XVID
Идентификатор кодека/Подсказка : XviD
Продолжительность : 1 ч. 14 м.
Битрейт : 2008 Кбит/сек
Ширина : 720 пикселей
Высота : 384 пикселя
Соотношение сторон : 1,875
Частота кадров : 25,000 кадров/сек
Цветовое пространство : YUV
Субдискретизация насыщенности : 4:2:0
Битовая глубина : 8 бит
Тип развёртки : Прогрессивная
Метод сжатия : С потерями
Бит/(Пиксели*Кадры) : 0.290
Размер потока : 1,05 Гбайт (72%)
Библиотека кодирования : XviD 1.2.1 (UTC 2008-12-04)
Аудио #1
Идентификатор : 1
Формат : AC-3
Формат/Информация : Audio Coding 3
Расширение режима : CM (complete main)
Идентификатор кодека : 2000
Продолжительность : 1 ч. 14 м.
Вид битрейта : Постоянный
Битрейт : 384 Кбит/сек
Каналы : 6 каналов
Расположение каналов : Front: L C R, Side: L R, LFE
Частота : 48,0 КГц
Битовая глубина : 16 бит
Метод сжатия : С потерями
Размер потока : 206 Мбайт (14%)
Выравнивание : Разделение по промежуткам
Продолжительность промежутка : 40 мс. (1,00 видеокадр)
Время предзагрузки промежутка : 500 мс.
Аудио #2
Идентификатор : 2
Формат : AC-3
Формат/Информация : Audio Coding 3
Расширение режима : CM (complete main)
Идентификатор кодека : 2000
Продолжительность : 1 ч. 14 м.
Вид битрейта : Постоянный
Битрейт : 384 Кбит/сек
Каналы : 6 каналов
Расположение каналов : Front: L C R, Side: L R, LFE
Частота : 48,0 КГц
Битовая глубина : 16 бит
Метод сжатия : С потерями
Размер потока : 206 Мбайт (14%)
Выравнивание : Разделение по промежуткам
Продолжительность промежутка : 40 мс. (1,00 видеокадр)
Время предзагрузки промежутка : 500 мс.


Релиз подготовлен:
Download / Скачать

Хотите скачать бесплатно? Зарегистрируйтесь на сайте (ссылка на регистрацию). Pirat.ca - самый быстрый торрент трекер в рунете!

Как скачивать  ·   Что такое торрент  ·   Рейтинг и ограничения

Пост 31-Дек-2011 15:01 (спустя 18 минут)

Топик был перенесен из форума Мультипликация в форум Зарубежные полнометражные мультфильмы

Sirota
 

shalonina

Гроза морей

Пост 26-Авг-2014 17:40 (спустя 2 года 7 месяцев)

[Q] 

помогу с раздачей..............................................

_________________
[Профиль]  [ЛС] 
Показать сообщения:    
Ответить на тему

Текущее время: Сегодня 14:44

Часовой пояс: GMT + 4



Вы не можете начинать темы
Вы не можете отвечать на сообщения
Вы не можете редактировать свои сообщения
Вы не можете удалять свои сообщения
Вы не можете голосовать в опросах
Вы не можете прикреплять файлы к сообщениям
Вы не можете скачивать файлы

▼ Вниз