ML
     
  Уважаемый Гость!
Вы можете поддержать проект и зарегистрироваться у наших партнеров - онлайн-стратегия MyLands. При регистрации в игре Вы получите код, который сможете активировать после регистрации на pirat.ca и получить 1000 дублонов.

Ваш код:
ee1288b6f7c09d9d2cb2a0f972aba30460ce9333
 
     

Турбо / Turbo (Дэвид Сорен / David Soren) [2013 г., мультфильм, комедия, приключения, семейный, спорт, HDRip] Dub [Лицензия] «Двадцатый Век Фокс СНГ»

Ответить на тему
 
Автор
Сообщение

Пост 27-Окт-2013 17:39

[Q] 

Jigsaw

 
-Турбо
Turbo
«Быстрее, еще быстрее!»
-- Производство: США / DreamWorks Animation
Год выпуска: 2013 г.
Жанр: мультфильм, комедия, приключения, семейный, спорт
Продолжительность: 01:35:40
Мировая премьера: 17 июля 2013
Российская премьера: 18 июля 2013, «Двадцатый Век Фокс СНГ»
Дата выхода DVD: 21 ноября 2013, «Двадцатый Век Фокс СНГ»
Перевод: Профессиональный (полное дублирование) [Лицензия]
Режиссер: Дэвид Сорен / David Soren-Роли озвучили: Райан Рейнольдс (Ryan Reynolds), Пол Джаматти (Paul Giamatti), Майкл Пенья (Michael Peña), Снуп Догг (Snoop Dogg), Майя Рудольф (Maya Rudolph), Мишель Родригес (Michelle Rodriguez), Сэмюэл Л. Джексон (Samuel L. Jackson), Луис Гусман (Luis Guzman), Билл Хейдер (Bill Hader), Бен Шварц (Ben Schwartz), Ричард Дженкинс (Richard Jenkins), Кен Жонг (Ken Jeong), Марио Андретти (Mario Andretti), Майк Белл (Mike Bell (в титрах: Michael Patrick Bell)), Эйдан Эндрюс (Aidan Andrews), Аарон Бергер (Aaron Berger)- -Описание: Ничто так не раздражает темпераментную, мечтающую о скорости улитку с говорящим именем Турбо, как неспешная жизнь, медленные разговоры, заторможенные соседи. Пусть наш герой выглядит большим чудаком в этом вялом, неторопливом мире, пусть он идёт вопреки закону природы о «рождённом ползать», но если в сердце горит «пламенный мотор», а душа верит в чудо, оно просто не имеет права не произойти!- -Качество видео: HDRip
Контейнер: AVI
Видео кодек: XviD
Аудио кодек: AC3
Видео: 720x304 (2.35:1), 23.976 fps, XviD build 50 ~1786 kbps avg, 0.34 bit/pixel
Аудио: Rus: 48 kHz, AC3 Dolby Digital, 3/2 (L,C,R,l,r) + LFE ch, ~448 kbps - Дубляж [Лицензия]
Cубтитры: отсутствуют-
Общее
Полное имя : D:\Turbo.2013.D.HDRip.avi
Формат : AVI
Формат/Информация : Audio Video Interleave
Размер файла : 1,50 Гбайт
Продолжительность : 1 ч. 35 м.
Общий поток : 2244 Кбит/сек
Программа кодирования : VirtualDubModRus 1.5.10.2 (build 2542/release)
Библиотека кодирования : VirtualDubMod build 2542/release
Видео
Идентификатор : 0
Формат : MPEG-4 Visual
Профиль формата : Advanced [email protected]
Параметр BVOP формата : 2
Параметр QPel формата : Нет
Параметр GMC формата : Без точки перехода
Параметр матрицы формата : Выборочная
Идентификатор кодека : XVID
Идентификатор кодека/Подсказка : XviD
Продолжительность : 1 ч. 35 м.
Битрейт : 1787 Кбит/сек
Ширина : 720 пикселей
Высота : 304 пикселя
Соотношение сторон : 2,35:1
Частота кадров : 23,976 кадра/сек
Цветовое пространство : YUV
Субдискретизация насыщенности : 4:2:0
Битовая глубина : 8 бит
Тип развёртки : Прогрессивная
Метод сжатия : С потерями
Бит/(Пиксели*Кадры) : 0.340
Размер потока : 1,19 Гбайт (80%)
Библиотека кодирования : XviD 1.2.1 (UTC 2008-12-04)
Аудио
Идентификатор : 1
Формат : AC-3
Формат/Информация : Audio Coding 3
Расширение режима : CM (complete main)
Параметр Endianness формата : Big
Идентификатор кодека : 2000
Продолжительность : 1 ч. 35 м.
Вид битрейта : Постоянный
Битрейт : 448 Кбит/сек
Каналы : 6 каналов
Расположение каналов : Front: L C R, Side: L R, LFE
Частота : 48,0 КГц
Битовая глубина : 16 бит
Метод сжатия : С потерями
Размер потока : 307 Мбайт (20%)
Выравнивание : Разделение по промежуткам
Продолжительность промежутка : 42 мс. (1,00 видеокадр)
Время предзагрузки промежутка : 500 мс.
-
- -
Download / Скачать

Хотите скачать бесплатно? Зарегистрируйтесь на сайте (ссылка на регистрацию). Pirat.ca - самый быстрый торрент трекер в рунете!

Как скачивать  ·   Что такое торрент  ·   Рейтинг и ограничения

viktor41

Шкипер

Пост 27-Окт-2013 20:31 (спустя 2 часа 52 минуты)

[Q] 

Классный мульт !
[Профиль]  [ЛС] 

zmvv

Лоцман

Пост 27-Окт-2013 22:53 (спустя 2 часа 22 минуты)

[Q] 

Респект ! Лови бочку
[Профиль]  [ЛС] 

EgikGeks7

Штурман

Пост 28-Окт-2013 04:26 (спустя 5 часов)

[Q] 

спасибо! Лови бочку
[Профиль]  [ЛС] 

Jek@

Легенда

Пост 28-Окт-2013 09:45 (спустя 5 часов)

[Q] 

Спасибо!!! .
[Профиль]  [ЛС] 

werno

Штурман

Пост 30-Окт-2013 21:41 (спустя 2 дня 11 часов)

[Q] 

это худший мультфильм студии DW за всю историю. такой бред даже asylum не снимает
[Профиль]  [ЛС] 

Bozo

Флибустьер

Пост 14-Ноя-2013 19:12 (спустя 14 дней)

[Q] 

совсем не зацепил мульт, не досмотрели
[Профиль]  [ЛС] 

CHARLI2236

1096

Пост 04-Янв-2014 14:15 (спустя 1 месяц 19 дней)

[Q] 

подключусь AntiZip 16

_________________
[Профиль]  [ЛС] 

ment

Шкипер

Пост 29-Янв-2014 19:31 (спустя 25 дней)

[Q] 

Спасибо. Супер! Одобрямс!
[Профиль]  [ЛС] 

Alexlogin

Гроза морей

105

Пост 29-Янв-2014 21:18 (спустя 1 час 46 минут)

[Q] 

Щас посмотрим)
[Профиль]  [ЛС] 

Незнайка

Флибустьер

Пост 30-Янв-2014 00:10 (спустя 2 часа 52 минуты)

[Q] 

автору респект.... Спасибо!!!
[Профиль]  [ЛС] 

stas-burn

Корсар

Пост 28-Мар-2014 05:58 (спустя 1 месяц 29 дней)

[Q] 

Спасибо!!! !COOL!
[Профиль]  [ЛС] 

lexaspirit

Пост 28-Мар-2016 16:34 (спустя 2 года)

[Q] 

Понравился. Есть 2 очень смешных момента и множество забавных. Рекомендую посмотреть

_________________
-------------------- ----------------------
[Профиль]  [ЛС] 
Показать сообщения:    
Ответить на тему

Текущее время: Сегодня 18:18

Часовой пояс: GMT + 4



Вы не можете начинать темы
Вы не можете отвечать на сообщения
Вы не можете редактировать свои сообщения
Вы не можете удалять свои сообщения
Вы не можете голосовать в опросах
Вы не можете прикреплять файлы к сообщениям
Вы не можете скачивать файлы

▼ Вниз