ML
     
  Уважаемый Гость!
Вы можете поддержать проект и зарегистрироваться у наших партнеров - онлайн-стратегия MyLands. При регистрации в игре Вы получите код, который сможете активировать после регистрации на pirat.ca и получить 1000 дублонов.

Ваш код:
9cfe162481db953a6549f32179d7b3900b8b8643
 
     

Барби и ее сестры в Сказке о пони / Barbie & Her Sisters in A Pony Tale (Кайран Келли / Kieran Kelly) [2013 г., Мультфильм, семейный, HDRip] Dub [iTunes Russia]

Ответить на тему
 
Автор
Сообщение

Пост 01-Ноя-2013 14:46

[Q] 

vovanig

-Барби и ее сестры в Сказке о пони / Barbie & Her Sisters in A Pony Tale -- Производство: США
Режиссер: Кайран Келли / Kieran Kelly
Жанр: Мультфильм, семейный
Год выпуска: 2013 г.
Продолжительность: 01:14:11-Перевод: Профессиональный (полное дублирование) [iTunes Russia]
Роли озвучивали:
Келли Шеридан, Казуми Эванс, Клэр Corlett, Эшлин Драммонд, Алекс Келли, Табита Сен-Жермен-Описание:
Барби и её сестры отправляются в сказочные Швейцарские Альпы, чтобы провести незабываемые летние каникулы в школе верховой езды! Барби с нетерпением ждет встречи с новой лошадкой, которую намеревается забрать с собой в Малибу. Стэйси очень хочется доказать всем, что она великолепная наездница. Малышка Челси мечтает покататься на «настоящих больших лошадках», а Скиппер… , она, пожалуй, больше любит красочно описывать приключения, чем участвовать в них. Каникулы идут своим чередом, пока Барби не находит в лесу необычную дикую лошадь – и каникулы сестер становятся по-настоящему волшебными!
-
-Качество видео: HDRip
Контейнер: AVI
Видео кодек: XviD
Аудио кодек: AC3
Видео: 720x400 (1.80:1), 23.976 fps, XviD build 50 ~1596 kbps avg, 0.23 bit/pixel
Аудио: 48 kHz, AC3 Dolby Digital, 3/2 (L,C,R,l,r) + LFE ch, ~384 kbps
Cубтитры: отсутствуют
-
Общее
Полное имя : D:\Видео\Barbie&Her.Sisters.In.A.Pony.Tale.D.HDRip.avi
Формат : AVI
Формат/Информация : Audio Video Interleave
Размер файла : 1,03 Гбайт
Продолжительность : 1 ч. 14 м.
Общий поток : 1990 Кбит/сек
Программа кодирования : VirtualDubMod 1.5.10.2 (build 2540/release)
Библиотека кодирования : VirtualDubMod build 2540/release
Видео
Идентификатор : 0
Формат : MPEG-4 Visual
Профиль формата : Advanced [email protected]
Параметр BVOP формата : 2
Параметр QPel формата : Нет
Параметр GMC формата : Без точки перехода
Параметр матрицы формата : Default (H.263)
Идентификатор кодека : XVID
Идентификатор кодека/Подсказка : XviD
Продолжительность : 1 ч. 14 м.
Битрейт : 1597 Кбит/сек
Ширина : 720 пикселей
Высота : 400 пикселей
Соотношение сторон : 16:9
Соотношение сторон в оригинале : 16:9
Частота кадров : 23,976 кадра/сек
Цветовое пространство : YUV
Субдискретизация насыщенности : 4:2:0
Битовая глубина : 8 бит
Тип развёртки : Прогрессивная
Метод сжатия : С потерями
Бит/(Пиксели*Кадры) : 0.231
Размер потока : 847 Мбайт (80%)
Библиотека кодирования : XviD 1.2.1 (UTC 2008-12-04)
Аудио
Идентификатор : 1
Формат : AC-3
Формат/Информация : Audio Coding 3
Расширение режима : CM (complete main)
Параметр Endianness формата : Big
Идентификатор кодека : 2000
Продолжительность : 1 ч. 14 м.
Вид битрейта : Постоянный
Битрейт : 384 Кбит/сек
Каналы : 6 каналов
Расположение каналов : Front: L C R, Side: L R, LFE
Частота : 48,0 КГц
Битовая глубина : 16 бит
Метод сжатия : С потерями
Размер потока : 204 Мбайт (19%)
Выравнивание : Разделение по промежуткам
Продолжительность промежутка : 42 мс. (1,00 видеокадр)
Время предзагрузки промежутка : 500 мс.
Download / Скачать

Хотите скачать бесплатно? Зарегистрируйтесь на сайте (ссылка на регистрацию). Pirat.ca - самый быстрый торрент трекер в рунете!

Как скачивать  ·   Что такое торрент  ·   Рейтинг и ограничения



Последний раз редактировалось: vovanig (2013-11-01 15:47), всего редактировалось 1 раз

Пост 01-Ноя-2013 15:57 (спустя 1 час 10 минут)

Топик был перенесен из форума Мультфильмы (Трюм) в форум Новинки (HD|DVD|BD| TV|SAT|PDTV| - Rips)
ara1205
 

Alex Yz

Гроза морей

Пост 01-Ноя-2013 22:51 (спустя 8 часов)

[Q] 

Спасибо, Спасибо!!! !COOL! доча посмотрит сообщу о её впечатлениях.
[Профиль]  [ЛС] 

vovanig ®

39140

Пост 02-Ноя-2013 07:11 (спустя 8 часов)

[Q] 

442661Спасибо, Спасибо!!! !COOL! доча посмотрит сообщу о её впечатлениях.
Приятного просмотра!
[Профиль]  [ЛС] 

cop76

Шкипер

Пост 03-Ноя-2013 13:37 (спустя 1 день 6 часов)

[Q] 

Покажу дочке. Спасибо

_________________
[Профиль]  [ЛС] 

Alex Yz

Гроза морей

Пост 04-Ноя-2013 19:25 (спустя 1 день 5 часов)

[Q] 

Дочери очень понравилось. Сын занимающийся конным спортом - критиковал. По его словам: "Одев седло без потника и вальтрапа лошадь сделали бы инвалидом"
[Профиль]  [ЛС] 

Datchanin

Корсар

36

Пост 06-Ноя-2013 14:40 (спустя 1 день 19 часов)

[Q] 

Спасибо! Дочка будет пищать от восторга! %)

_________________
[Профиль]  [ЛС] 

sergej 1340

Морской Волк

Пост 31-Янв-2014 19:09 (спустя 2 месяца 25 дней)

[Q] 

спасибо! Лови бочку
[Профиль]  [ЛС] 
Показать сообщения:    
Ответить на тему

Текущее время: Сегодня 06:00

Часовой пояс: GMT + 4



Вы не можете начинать темы
Вы не можете отвечать на сообщения
Вы не можете редактировать свои сообщения
Вы не можете удалять свои сообщения
Вы не можете голосовать в опросах
Вы не можете прикреплять файлы к сообщениям
Вы не можете скачивать файлы

▼ Вниз