ML
     
  Уважаемый Гость!
Вы можете поддержать проект и зарегистрироваться у наших партнеров - онлайн-стратегия MyLands. При регистрации в игре Вы получите код, который сможете активировать после регистрации на pirat.ca и получить 1000 дублонов.

Ваш код:
73640f24f8a0f579e128ea7346fd2db2b1009143
 
     

Секретная служба Санты: Шалуны против послушных / Prep and Landing: Naughty vs Nice (Кевин Дитерс, Стиви Вермерс \ Kevin Deters, Stevie Wermers) [2011 г., комедия, приключения, семейный, HDTVRip] (MVO)

Ответить на тему
 
Автор
Сообщение

Пост 31-Дек-2011 22:18

[Q] 

Sirota

Легенда

Секретная служба Санты: Шалуны против послушных / Prep and Landing: Naughty vs Nice Год выпуска: 2011
Производство: США, Walt Disney Pictures
Жанр: комедия, приключения, семейный
Продолжительность: 00:21:32
Перевод: профессиональный (многоголосый, закадровый)
Режиссер: Кевин Дитерс, Стиви Вермерс \ Kevin Deters, Stevie Wermers
В ролях: Сара Чок, Дэйв Фоли, Дерек Ричардсон, Роб Риггл, Эмили Элин Линд и другие.
Описание: Новый короткометражный мультфильм от создателей "Секретной службы Санта Клауса". Что может быть сложнее, чем спасти грядущее Рождество?! Судьба уготовила отважным эльфам Уэйну и Лэнни новую миссию по спасению грядущего праздника... А поможет им в этом старый знакомый Уэйна - эльф-угольщик Ноэл. Приключения начинаются!
Сэмпл, IMDB,
Источник/Качество: HDTVRip
Формат: AVI
Видео кодек: XviD
Аудио кодек: MP3
Видео: 720x400 (1.80:1), 23.976 fps, XviD build 64 ~1234 kbps avg, 0.18 bit/pixel
Аудио: Русский 48 kHz, MPEG Layer 3, 2 ch, ~128.00 kbps avg
Аудио #2: Английский 48 kHz, MPEG Layer 3, 2 ch, ~130.50 kbps avg
Субтитры: нет
General
Format : AVI
Format/Info : Audio Video Interleave
File size : 233 MiB
Duration : 21mn 32s
Overall bit rate : 1 512 Kbps
Writing application : VirtualDubMod 1.5.10.2 (build 2540/release)
Writing library : VirtualDubMod build 2540/release
Video #0
ID : 0
Format : MPEG-4 Visual
Format profile : [email protected]
Format settings, BVOP : Yes
Format settings, QPel : No
Format settings, GMC : No warppoints
Format settings, Matrix : Default (MPEG)
Codec ID : XVID
Codec ID/Hint : XviD
Duration : 21mn 32s
Bit rate : 1 236 Kbps
Width : 720 pixels
Height : 400 pixels
Display aspect ratio : 16:9
Frame rate : 23.976 fps
Resolution : 24 bits
Colorimetry : 4:2:0
Scan type : Progressive
Bits/(Pixel*Frame) : 0.179
Stream size : 190 MiB (82%)
Writing library : XviD 64
Audio #1
ID : 1
Format : MPEG Audio
Format version : Version 1
Format profile : Layer 3
Codec ID : 55
Codec ID/Hint : MP3
Duration : 21mn 32s
Bit rate mode : Constant
Bit rate : 128 Kbps
Channel(s) : 2 channels
Sampling rate : 48.0 KHz
Resolution : 16 bits
Stream size : 19.7 MiB (8%)
Alignment : Aligned on interleaves
Interleave, duration : 42 ms (1.00 video frame)
Interleave, preload duration : 504 ms
Audio #2
ID : 2
Format : MPEG Audio
Format version : Version 1
Format profile : Layer 3
Codec ID : 55
Codec ID/Hint : MP3
Duration : 21mn 32s
Bit rate mode : Variable
Bit rate : 130 Kbps
Nominal bit rate : 128 Kbps
Channel(s) : 2 channels
Sampling rate : 48.0 KHz
Resolution : 16 bits
Stream size : 20.1 MiB (9%)
Alignment : Aligned on interleaves
Interleave, duration : 24 ms (0.58 video frame)
Interleave, preload duration : 503 ms
Writing library : LAME3.90.
Encoding settings : -m j -V 4 -q 2 -lowpass 17.6 --abr 128
-
-Релиз подготовлен:

-
-
Download / Скачать

Хотите скачать бесплатно? Зарегистрируйтесь на сайте (ссылка на регистрацию). Pirat.ca - самый быстрый торрент трекер в рунете!

Как скачивать  ·   Что такое торрент  ·   Рейтинг и ограничения

Пост 31-Дек-2011 22:55 (спустя 36 минут)

Топик был перенесен из форума Мультипликация в форум Новинки (HD|DVD|BD|TV|SAT|PDTV| - Rips)

zyyx
 

kentovit

Лоцман

Пост 01-Янв-2012 09:55 (спустя 11 часов)

[Q] 

вчера по стс в дубляже показывали
[Профиль]  [ЛС] 

polozm

Легенда

Пост 04-Янв-2012 11:45 (спустя 3 дня)

[Q] 

надо качнуть :)

_________________
mac mini -2.0 GHz Intel Core i7/ 8 GB DDR3. /Intel HD 3000(512mb)OS X 10.9 Mavericks
[Профиль]  [ЛС] 

Колямба

Морской Волк

Пост 16-Янв-2012 01:10 (спустя 11 дней)

[Q] 

спасибо
[Профиль]  [ЛС] 

CHARLI2236

1089

Пост 30-Окт-2012 13:32 (спустя 9 месяцев 14 дней)

[Q] 

благодарю

_________________
[Профиль]  [ЛС] 

Вут

Морской Волк

72

Пост 12-Авг-2013 13:05 (спустя 9 месяцев 12 дней)

[Q] 

Спасибо! Заценю с детьми. Автору респект!!!
[Профиль]  [ЛС] 
Показать сообщения:    
Ответить на тему

Текущее время: Сегодня 22:34

Часовой пояс: GMT + 4



Вы не можете начинать темы
Вы не можете отвечать на сообщения
Вы не можете редактировать свои сообщения
Вы не можете удалять свои сообщения
Вы не можете голосовать в опросах
Вы не можете прикреплять файлы к сообщениям
Вы не можете скачивать файлы

▼ Вниз