ML
     
  Уважаемый Гость!
Вы можете поддержать проект и зарегистрироваться у наших партнеров - онлайн-стратегия MyLands. При регистрации в игре Вы получите код, который сможете активировать после регистрации на pirat.ca и получить 1000 дублонов.

Ваш код:
11f49771fdf057c9d51610e4a0925c3b46ddb655
 
     

Университет монстров / Monsters University (Дэн Скэнлон / Dan Scanlon) [2013 г., мультфильм, фэнтези, комедия, приключения, семейный, HDRip] Dub [Лицензия]

Ответить на тему
 
Автор
Сообщение

Пост 01-Ноя-2013 18:35

[Q] 

ara1205

-Университет монстров / Monsters University-- Производство: США
Год выпуска: 2013 г.
Жанр: мультфильм, фэнтези, комедия, приключения, семейный
Продолжительность: 01:43:47
Перевод: Профессиональный (полное дублирование) [Лицензия]-Режиссер: Дэн Скэнлон / Dan Scanlon-Роли Дублировали: Сергей Паршин, Олег Куликович, Евгений Дятлов, Людмила Максакова, Виталий Гогунский-Описание: Майк и Салли — самые опытные пугатели в Монстрополисе, но так было далеко не всегда. Когда они встретились впервые, эти монстры терпеть друг друга не могли. «Университет Монстров» — история о том, как наши старые знакомые прошли путь от взаимной неприязни к крепкой дружбе.- -Качество видео: HDRip
Контейнер: AVI
Видео кодек: XviD
Аудио кодек: MP3
Видео: 656x368, 23,976 fps, 866 kbps avg, 0.15 bit/pixel
Аудио: 48 kHz, MP3, 2 ch, ~128 kbps
Cубтитры: отсутствуют-
Общее
Полное имя : C:\Users\Ромик\Pictures\Университет монстров\Monsters.University.2013.BDRip.745Mb.avi
Формат : AVI
Формат/Информация : Audio Video Interleave
Размер файла : 745 Мбайт
Продолжительность : 1 ч. 43 м.
Общий поток : 1003 Кбит/сек
Название фильма : Monsters.University.2013.BDRip.745Mb.[pirat.ca]
Программа кодирования : VirtualDubMod 1.5.10.2 (build 2540/release)
Видео
Идентификатор : 0
Формат : MPEG-4 Visual
Профиль формата : Advanced [email protected]
Параметр BVOP формата : 1
Параметр QPel формата : Нет
Параметр GMC формата : Без точки перехода
Параметр матрицы формата : Выборочная
Идентификатор кодека : XVID
Идентификатор кодека/Подсказка : XviD
Продолжительность : 1 ч. 43 м.
Битрейт : 866 Кбит/сек
Ширина : 656 пикселей
Высота : 368 пикселей
Соотношение сторон : 16:9
Частота кадров : 23,976 кадра/сек
Цветовое пространство : YUV
Субдискретизация насыщенности : 4:2:0
Битовая глубина : 8 бит
Тип развёртки : Прогрессивная
Метод сжатия : С потерями
Бит/(Пиксели*Кадры) : 0.150
Размер потока : 643 Мбайт (86%)
Библиотека кодирования : XviD 65
Аудио
Идентификатор : 1
Формат : MPEG Audio
Версия формата : Version 1
Профиль формата : Layer 3
Идентификатор кодека : 55
Идентификатор кодека/Подсказка : MP3
Продолжительность : 1 ч. 43 м.
Вид битрейта : Постоянный
Битрейт : 128 Кбит/сек
Каналы : 2 канала
Частота : 48,0 КГц
Метод сжатия : С потерями
Размер потока : 95,0 Мбайт (13%)
Выравнивание : Соединение по промежуткам
Продолжительность промежутка : 42 мс. (1,00 видеокадр)
Время предзагрузки промежутка : 504 мс.
Библиотека кодирования : LAMELAME_MAJOR_VERSI
-
-
Download / Скачать

Хотите скачать бесплатно? Зарегистрируйтесь на сайте (ссылка на регистрацию). Pirat.ca - самый быстрый торрент трекер в рунете!

Как скачивать  ·   Что такое торрент  ·   Рейтинг и ограничения

yulya230784

Морской Волк

927

Пост 03-Ноя-2013 12:00 (спустя 1 день 17 часов)

[Q] 

Спасибо отличный мультик.
[Профиль]  [ЛС] 

Ambeg

Корсар

Пост 08-Дек-2013 13:36 (спустя 1 месяц 5 дней)

[Q] 

Спасибо Хороший мульт
[Профиль]  [ЛС] 

Grand Zero

Морской Волк

Пост 22-Дек-2013 11:43 (спустя 13 дней)

[Q] 

спасибо,оч классный мульт
[Профиль]  [ЛС] 
Показать сообщения:    
Ответить на тему

Текущее время: Сегодня 03:12

Часовой пояс: GMT + 4



Вы не можете начинать темы
Вы не можете отвечать на сообщения
Вы не можете редактировать свои сообщения
Вы не можете удалять свои сообщения
Вы не можете голосовать в опросах
Вы не можете прикреплять файлы к сообщениям
Вы не можете скачивать файлы

▼ Вниз