ML
     
  Уважаемый Гость!
Вы можете поддержать проект и зарегистрироваться у наших партнеров - онлайн-стратегия MyLands. При регистрации в игре Вы получите код, который сможете активировать после регистрации на pirat.ca и получить 1000 дублонов.

Ваш код:
a6d1ef7ff63e237add5a4c8b21d8aa937c5e9b4b
 
     

Самолеты / Planes (Клэй Холл / Klay Hall) [2013 г., мультфильм, комедия, приключения, семейный, HDRip] Dub [Лицензия]

Ответить на тему
 
Автор
Сообщение

Пост 04-Ноя-2013 12:34

[Q] 

aleksey99

-Самолеты / Planes-«В небе, под которым живут Тачки»- -Производство: США
Год выпуска: 2013 г.
Жанр: мультфильм, комедия, приключения, семейный
Продолжительность: 01:31:35-Мировая премьера: 5 августа 2013
Российская премьера: 29 августа 2013, «WDSSPR»
Релиз на DVD: 10 декабря 2013, «Уолт Дисней Компани СНГ»
Релиз на Blu-Ray: 10 декабря 2013, «Уолт Дисней Компани СНГ»-Перевод: Профессиональный (полное дублирование) [Лицензия]-Режиссер: Клэй Холл / Klay Hall-В ролях: Дейн Кук, Стейси Кич, Брэд Гэррет, Тери Хэтчер, Джулия Луис-Дрейфус, Приянка Чопра, Джон Клиз, Седрик «Развлекатель», Карлос Алазраки, Роджер Крэйг Смит-Описание: Дасти Полейполе — скромный трудяга-самолет, работающий сельскохозяйственным распылителем на заштатном провинциальном аэродроме. Однако это не мешает ему мечтать о том, чтобы однажды принять участие в кругосветных гонках самых быстрых самолетов. Одна незадача — Дасти панически боится большой высоты. Поэтому, когда волею случая он все же попадает в число участников отборочного тура воздушных соревнований, ему приходится искать помощи у ветерана военно-морской авиации, отставного истребителя Шкипера. С помощью мудрого наставника Дасти сможет преодолеть свои слабости и бросить вызов надменному чемпиону Рипслингеру, а весь мир будет с замиранием сердца следить за гонкой в небесах!..- -Качество видео: HDRip
Контейнер: AVI
Видео кодек: XviD
Аудио кодек: AC3
Видео: 720x400 (1.80:1), 23.976 fps, XviD build 50 ~1678 kbps avg, 0.24 bit/pixel
Аудио: 48 kHz, AC3 Dolby Digital, 3/2 (L,C,R,l,r) + LFE ch, ~448 kbps
Cубтитры: Отсутствуют
Общее
Полное имя : D:\Torrent 2\Samolety.2013.D.HDRip_[pirat.ca].avi
Формат : AVI
Формат/Информация : Audio Video Interleave
Размер файла : 1,37 Гбайт
Продолжительность : 1 ч. 31 м.
Общий поток : 2136 Кбит/сек
Программа кодирования : VirtualDubMod 1.5.10.3 | www.virtualdub-fr.org || (build 2550/release)
Библиотека кодирования : VirtualDubMod build 2550/release
Видео
Идентификатор : 0
Формат : MPEG-4 Visual
Профиль формата : Advanced [email protected]
Параметр BVOP формата : 1
Параметр QPel формата : Нет
Параметр GMC формата : Без точки перехода
Параметр матрицы формата : Выборочная
Идентификатор кодека : XVID
Идентификатор кодека/Подсказка : XviD
Продолжительность : 1 ч. 31 м.
Битрейт : 1679 Кбит/сек
Ширина : 720 пикселей
Высота : 400 пикселей
Соотношение сторон : 16:9
Частота кадров : 23,976 кадра/сек
Цветовое пространство : YUV
Субдискретизация насыщенности : 4:2:0
Битовая глубина : 8 бит
Тип развёртки : Прогрессивная
Метод сжатия : С потерями
Бит/(Пиксели*Кадры) : 0.243
Размер потока : 1,07 Гбайт (79%)
Библиотека кодирования : XviD 1.2.1 (UTC 2008-12-04)
Аудио
Идентификатор : 1
Формат : AC-3
Формат/Информация : Audio Coding 3
Расширение режима : CM (complete main)
Параметр Endianness формата : Big
Идентификатор кодека : 2000
Продолжительность : 1 ч. 31 м.
Вид битрейта : Постоянный
Битрейт : 448 Кбит/сек
Каналы : 6 каналов
Расположение каналов : Front: L C R, Side: L R, LFE
Частота : 48,0 КГц
Битовая глубина : 16 бит
Метод сжатия : С потерями
Размер потока : 293 Мбайт (21%)
Выравнивание : Разделение по промежуткам
Продолжительность промежутка : 42 мс. (1,00 видеокадр)
Время предзагрузки промежутка : 500 мс.
Трейлер
Download / Скачать

Хотите скачать бесплатно? Зарегистрируйтесь на сайте (ссылка на регистрацию). Pirat.ca - самый быстрый торрент трекер в рунете!

Как скачивать  ·   Что такое торрент  ·   Рейтинг и ограничения



Последний раз редактировалось: aleksey99 (2013-12-12 07:38), всего редактировалось 2 раз(а)

viktor41

Шкипер

Пост 04-Ноя-2013 12:43 (спустя 8 минут)

[Q] 

aleksey99, Спасибо ! Классный мульт .
[Профиль]  [ЛС] 

got70

Легенда

752

Пост 04-Ноя-2013 12:46 (спустя 3 минуты)

[Q] 

Давно ждал в хорошем качестве.Дочка обрадуется
Раздающему респект!

_________________
Добро непременно победит зло!Непременно...Затем поставит на колени,и зверски УБЬЁТ!
[Профиль]  [ЛС] 

Пост 04-Ноя-2013 20:17 (спустя 7 часов)

Топик был перенесен из форума Мультфильмы (Трюм) в форум Новинки (HD|DVD|BD| TV|SAT|PDTV| - Rips)
erchine
 

post_aleks

Шкипер

689

Пост 05-Ноя-2013 08:15 (спустя 19 часов)

[Q] 

Спасибо!!!
Забираю....

_________________
Идеального мужчину можно встретить на каждом углу - сказал Бог, и создал Землю круглой...
[Профиль]  [ЛС] 

makovcov

Лоцман

Пост 05-Ноя-2013 19:14 (спустя 10 часов)

[Q] 

Раздающему респект! спасибо!!!
[Профиль]  [ЛС] 

baltimor30

Морской Волк

Пост 05-Ноя-2013 20:52 (спустя 1 час 37 минут)

[Q] 

Спасибо, ребенку понравится, та ми сами не откажемся от семейного просмотра
[Профиль]  [ЛС] 

BOBROFF

Морской Волк

Пост 05-Ноя-2013 23:43 (спустя 2 часа 51 минута)

[Q] 

супер Спасибо!!! Одобрямс!
[Профиль]  [ЛС] 

aleksey99 ®

281767

Пост 03-Дек-2013 08:54 (спустя 27 дней)

[Q] 

Файл перезалит на звук iTunes Russia

_________________

[Профиль]  [ЛС] 

polozm

Легенда

Пост 03-Дек-2013 09:40 (спустя 45 минут)

[Q] 

спасибо большое!качну дочке :)

_________________
mac mini -2.0 GHz Intel Core i7/ 8 GB DDR3. /Intel HD 3000(512mb)OS X 10.9 Mavericks
[Профиль]  [ЛС] 

kalmyk73

Морской Волк

Пост 03-Дек-2013 09:48 (спустя 8 минут)

[Q] 

Думаю мальчишкам моим придется по вкусу Спасибо!!! Спасибо!!!

_________________
Я люблю тебя жизнь ну а ты меня СНОВА И СНОВА.
[Профиль]  [ЛС] 

tango07

Корсар

Пост 04-Дек-2013 17:35 (спустя 1 день 7 часов)

[Q] 

Спасибо ! Классный мульт .
[Профиль]  [ЛС] 

egokdm

Гроза морей

1361

Пост 08-Дек-2013 18:22 (спустя 4 дня)

[Q] 

Бодрый мультфильм! А с испанским дубляжем так прикольно и весело было смотреть! Благодарность автору!
[Профиль]  [ЛС] 

fredreg

Лоцман

Пост 10-Дек-2013 20:02 (спустя 2 дня 1 час)

[Q] 

большое спасибо Раздающему респект! Супер!
[Профиль]  [ЛС] 

aleksey99 ®

281767

Пост 12-Дек-2013 07:40 (спустя 1 день 11 часов)

[Q] 

Файл перезалит на лицензию

_________________

[Профиль]  [ЛС] 

Jek@

Легенда

Пост 12-Дек-2013 11:47 (спустя 4 часа)

[Q] 

Спасибо!!! .
[Профиль]  [ЛС] 

Bozo

Флибустьер

Пост 20-Дек-2013 16:39 (спустя 8 дней)

[Q] 

нельзя сказать, что прям шедевр, но вполне смотрибельный мульт, спс
[Профиль]  [ЛС] 

Benzyn

Штурман

Пост 22-Дек-2013 10:24 (спустя 1 день 17 часов)

[Q] 

спасибо, аналог мак вину)
[Профиль]  [ЛС] 

saske_killer

Морской Волк

Пост 22-Дек-2013 22:56 (спустя 12 часов)

[Q] 

спасибо) с братом посмотрю) Спасибо!!!
[Профиль]  [ЛС] 

alex denver71

Флибустьер

Пост 31-Дек-2013 13:12 (спустя 8 дней)

[Q] 

Автору респект!!! Сынульке понравилось!!!!!!! Всех с Наступающим az
[Профиль]  [ЛС] 

GOLD_ROOT

Морской Волк

Пост 31-Дек-2013 21:36 (спустя 8 часов)

[Q] 

Всем качать!!! С наступающим всех!!!

_________________
[Профиль]  [ЛС] 

seta

Шкипер

Пост 02-Янв-2014 00:39 (спустя 1 день 3 часа)

[Q] 

Классный мульт! Спасибо!!! Пиратка рулез!!!
[Профиль]  [ЛС] 

stas-burn

Корсар

Пост 17-Фев-2014 09:17 (спустя 1 месяц 15 дней)

[Q] 

Спасибо!!! Супер!
[Профиль]  [ЛС] 

Strix

Флибустьер

Пост 15-Фев-2015 10:00 (спустя 11 месяцев)

[Q] 

Спасибо, тру !COOL!
[Профиль]  [ЛС] 
Показать сообщения:    
Ответить на тему

Текущее время: Сегодня 13:38

Часовой пояс: GMT + 4



Вы не можете начинать темы
Вы не можете отвечать на сообщения
Вы не можете редактировать свои сообщения
Вы не можете удалять свои сообщения
Вы не можете голосовать в опросах
Вы не можете прикреплять файлы к сообщениям
Вы не можете скачивать файлы

▼ Вниз