ML
     
  Уважаемый Гость!
Вы можете поддержать проект и зарегистрироваться у наших партнеров - онлайн-стратегия MyLands. При регистрации в игре Вы получите код, который сможете активировать после регистрации на pirat.ca и получить 1000 дублонов.

Ваш код:
c89b4b6523eaac3173e9a9c062ac1a19db575961
 
     

Блэки летит на Луну / Black to the Moon 3D (Франсис Нилсен / Francis Nielsen) [2013 г., мультфильм, комедия, приключения, DVDRip] Dub [Лицензия]

Ответить на тему
 
Автор
Сообщение

Пост 06-Ноя-2013 10:06

[Q] 

aleksey99

--Блэки летит на Луну / Black to the Moon 3D- Производство: Испания, Италия, Франция / Art'Mell, Baleuko S.L., Film Investment Piedmont (FIP)
Год выпуска: 2013 г.
Жанр: мультфильм, комедия, приключения
Продолжительность: 01:17:13-Мировая премьера: 15 февраля 2013
Премьера (РФ): 6 июня 2013, «Cinema Prestige»
Релиз на DVD: 7 ноября 2013, «CP Дистрибуция»
Релиз на Blu-Ray: 7 ноября 2013, «CP Дистрибуция»-Перевод: Профессиональный (полное дублирование) [Лицензия]-Режиссер: Франсис Нилсен / Francis Nielsen-В ролях: Кристина Хьюз, Питер Хадсон, Кэролин Фаллин, Брайан Вермейр, Бобби Джексон-Описание: Овечка Блэки — настоящая чума для всей фермы. Она — постоянный нарушитель спокойствия, энергии у нее на десятерых. Она — черная овечка и очень гордится этим, потому что не хочет быть такой, как все. Животные-соседи называют ее «очаровательным бедствием». Иногда они считают Блэки невыносимой, но в конце концов стараются помочь в осуществлении ее безумных фантазий. И сейчас она просто одержима идеей полета на Луну. А о чем мечтает пес Кануто, охраняющий овец? О том, чтобы стать самым великим псом-охранником овец всех времен. Для этого он учится и трудится как проклятый. Он милый и хороший, и все просто обожают его. Ему нравится тишина и покой. И как такой правильный пес мог полюбить такую вздорную овечку? Несмотря на то, что он и слышать ничего не хотел о ракетах, Кануто решил поддержать свою обожаемую Блэки.
В ходе подготовки полета в какие только приключения они не попадут и каких только героев не встретят: корову — оперную певицу, волка — модного дизайнера, пауков-нелегалов, работающих на швейной фабрике, парочку птиц — участников реалити-шоу, овечку Пинки размером с Годзиллу, и главное — компанию собак, у которых уже есть ракета, практически готовая к запуску…-- -Качество видео: DVDRip
Контейнер: AVI
Видео кодек: XviD
Аудио кодек: AC3
Видео: 720x400 (1.80:1), 25 fps, XviD build 73 ~2307 kbps avg, 0.32 bit/pixel
Аудио: 48 kHz, AC3 Dolby Digital, 3/2 (L,C,R,l,r) + LFE ch, ~384 kbps
Cубтитры: отсутствуют
-
Общее
Полное имя : H:\Torrent2\Bleki.letit.na.lunu.2013.D.DVDRip_[pirat.ca].avi
Формат : AVI
Формат/Информация : Audio Video Interleave
Размер файла : 1,46 Гбайт
Продолжительность : 1 ч. 17 м.
Общий поток : 2701 Кбит/сек
Программа кодирования : VirtualDubMod 1.5.10.3 | www.virtualdub-fr.org || (build 2550/release)
Библиотека кодирования : VirtualDubMod build 2550/release
Видео
Идентификатор : 0
Формат : MPEG-4 Visual
Профиль формата : Advanced [email protected]
Параметр BVOP формата : 1
Параметр QPel формата : Нет
Параметр GMC формата : Без точки перехода
Параметр матрицы формата : Выборочная
Идентификатор кодека : XVID
Идентификатор кодека/Подсказка : XviD
Продолжительность : 1 ч. 17 м.
Битрейт : 2308 Кбит/сек
Ширина : 720 пикселей
Высота : 400 пикселей
Соотношение сторон : 16:9
Частота кадров : 25,000 кадров/сек
Цветовое пространство : YUV
Субдискретизация насыщенности : 4:2:0
Битовая глубина : 8 бит
Тип развёртки : Прогрессивная
Метод сжатия : С потерями
Бит/(Пиксели*Кадры) : 0.320
Размер потока : 1,24 Гбайт (85%)
Библиотека кодирования : XviD 73
Аудио
Идентификатор : 1
Формат : AC-3
Формат/Информация : Audio Coding 3
Расширение режима : CM (complete main)
Параметр Endianness формата : Big
Идентификатор кодека : 2000
Продолжительность : 1 ч. 17 м.
Вид битрейта : Постоянный
Битрейт : 384 Кбит/сек
Каналы : 6 каналов
Расположение каналов : Front: L C R, Side: L R, LFE
Частота : 48,0 КГц
Битовая глубина : 16 бит
Метод сжатия : С потерями
Размер потока : 212 Мбайт (14%)
Выравнивание : Разделение по промежуткам
Продолжительность промежутка : 40 мс. (1,00 видеокадр)
Время предзагрузки промежутка : 500 мс.
Трейлер
Download / Скачать

Хотите скачать бесплатно? Зарегистрируйтесь на сайте (ссылка на регистрацию). Pirat.ca - самый быстрый торрент трекер в рунете!

Как скачивать  ·   Что такое торрент  ·   Рейтинг и ограничения

estima

Лоцман

Пост 02-Дек-2013 14:00 (спустя 26 дней)

[Q] 

Спасибо раздающему за возможность ознакомиться.
Раздающему респект!
Потеряли время. Содержание - фу-фу-фу.
Трафик потрачен зря!
[Профиль]  [ЛС] 

alexey3312

Флибустьер

398

Пост 04-Дек-2013 08:58 (спустя 1 день 18 часов)

[Q] 

Стопудово, негры снимали, ибо больше такой бред ни кому не нужен...
За труды, раздающему спасибо...

_________________
Металлисты - это самый развитой и передовой класс, и никто не может отрицать, что это и есть передовой отряд всего пролетариата. В.И. Ленин
[Профиль]  [ЛС] 

vesna_7777

Корсар

Пост 28-Дек-2013 17:35 (спустя 24 дня)

[Q] 

чушь полная...
[Профиль]  [ЛС] 
Показать сообщения:    
Ответить на тему

Текущее время: Сегодня 22:33

Часовой пояс: GMT + 4



Вы не можете начинать темы
Вы не можете отвечать на сообщения
Вы не можете редактировать свои сообщения
Вы не можете удалять свои сообщения
Вы не можете голосовать в опросах
Вы не можете прикреплять файлы к сообщениям
Вы не можете скачивать файлы

▼ Вниз