ML
     
  Уважаемый Гость!
Вы можете поддержать проект и зарегистрироваться у наших партнеров - онлайн-стратегия MyLands. При регистрации в игре Вы получите код, который сможете активировать после регистрации на pirat.ca и получить 1000 дублонов.

Ваш код:
500cb7bd8d2cec9a8aba647a87ce41c4b76f06bd
 
     

Смурфики 2 / The Smurfs 2 (Раджа Госнелл / Raja Gosnell) [2013 г., мультфильм, фэнтези, комедия, семейный, BDRip] Dub [Лицензия] + Original (Eng)

Ответить на тему
 
Автор
Сообщение

Пост 13-Ноя-2013 03:46

[Q] 

aleksey99

-Смурфики 2 / The Smurfs 2-«Увидеть Париж и... осмурфеть!»- -Производство: США / Columbia Pictures, Sony Pictures Animation, Hemisphere Media Capital
Год выпуска: 2013 г.
Жанр: мультфильм, фэнтези, комедия, семейный
Продолжительность: 01:44:54-Мировая премьера: 28 июля 2013
Российская премьера: 1 августа 2013, «WDSSPR»
Релиз на DVD: 18 ноября 2013, «Columbia/Sony»
Релиз на Blu-Ray: 18 ноября 2013, «Columbia/Sony»-Перевод: Профессиональный (полное дублирование)[Лицензия]
Оригинальный аудиопоток: английский-Режиссер: Раджа Госнелл / Raja Gosnell-В ролях: Хэнк Азария, Нил Патрик Харрис, Брендан Глисон, Джейма Мейс, Джонатан Уинтерс, Кэти Перри, Кристина Риччи, Дж.Б. Смув, Джордж Лопес, Антон Ельчин-Описание: Гаргамел создаёт Хакуса и Векси, как две капли воды похожую на смурфиков злобную парочку, надеясь всё-таки обрести магическую силу. Когда он узнаёт, что лишь настоящий смурф может дать ему то, что он хочет, и лишь Смурфетта способна превратить Хакуса и Векси в настоящих смурфов, Гаргамел похищает Смурфетту и берёт её с собой в Париж, планируя сделать её своей прислужницей. Но смурфики — Папа, Растяпа, Смельчак, Ворчун, Красавчик, Благоразумник — и их друзья из Нью-Йорка этого так не оставят. Тем более что к ним присоединился новорождённый Голубчик.- -Качество видео: BDRip
Контейнер: AVI
Видео кодек: XviD
Аудио кодек: AC3
Видео: 720x384 (1.88:1), 23.976 fps, XviD build 50 ~1893 kbps avg, 0.28 bit/pixel
Аудио 1: 48 kHz, AC3 Dolby Digital, 3/2 (L,C,R,l,r) + LFE ch, ~448 kbps Rus
Аудио 2: 48 kHz, AC3 Dolby Digital, 3/2 (L,C,R,l,r) + LFE ch, ~448 kbps Eng
Cубтитры: Отсутствуют
Общее
Полное имя : H:\Torrent2\Smurfuki.2013.D.BDRip.2100MB_[pirat.ca].avi
Формат : AVI
Формат/Информация : Audio Video Interleave
Размер файла : 2,05 Гбайт
Продолжительность : 1 ч. 44 м.
Общий поток : 2803 Кбит/сек
Программа кодирования : VirtualDubMod 1.5.10.2 (build 2540/release)
Видео
Идентификатор : 0
Формат : MPEG-4 Visual
Профиль формата : Advanced [email protected]
Параметр BVOP формата : 2
Параметр QPel формата : Нет
Параметр GMC формата : Без точки перехода
Параметр матрицы формата : Выборочная
Идентификатор кодека : XVID
Идентификатор кодека/Подсказка : XviD
Продолжительность : 1 ч. 44 м.
Битрейт : 1893 Кбит/сек
Ширина : 720 пикселей
Высота : 384 пикселя
Соотношение сторон : 1,85:1
Частота кадров : 23,976 кадра/сек
Цветовое пространство : YUV
Субдискретизация насыщенности : 4:2:0
Битовая глубина : 8 бит
Тип развёртки : Прогрессивная
Метод сжатия : С потерями
Бит/(Пиксели*Кадры) : 0.286
Размер потока : 1,39 Гбайт (68%)
Библиотека кодирования : XviD 1.2.1 (UTC 2008-12-04)
Аудио #1
Идентификатор : 1
Формат : AC-3
Формат/Информация : Audio Coding 3
Расширение режима : CM (complete main)
Параметр Endianness формата : Big
Идентификатор кодека : 2000
Продолжительность : 1 ч. 44 м.
Вид битрейта : Постоянный
Битрейт : 448 Кбит/сек
Каналы : 6 каналов
Расположение каналов : Front: L C R, Side: L R, LFE
Частота : 48,0 КГц
Битовая глубина : 16 бит
Метод сжатия : С потерями
Размер потока : 336 Мбайт (16%)
Выравнивание : Разделение по промежуткам
Продолжительность промежутка : 42 мс. (1,00 видеокадр)
Время предзагрузки промежутка : 500 мс.
Аудио #2
Идентификатор : 2
Формат : AC-3
Формат/Информация : Audio Coding 3
Расширение режима : CM (complete main)
Параметр Endianness формата : Big
Идентификатор кодека : 2000
Продолжительность : 1 ч. 44 м.
Вид битрейта : Постоянный
Битрейт : 448 Кбит/сек
Каналы : 6 каналов
Расположение каналов : Front: L C R, Side: L R, LFE
Частота : 48,0 КГц
Битовая глубина : 16 бит
Метод сжатия : С потерями
Размер потока : 336 Мбайт (16%)
Выравнивание : Разделение по промежуткам
Продолжительность промежутка : 42 мс. (1,00 видеокадр)
Время предзагрузки промежутка : 500 мс.
Трейлер
Download / Скачать

Хотите скачать бесплатно? Зарегистрируйтесь на сайте (ссылка на регистрацию). Pirat.ca - самый быстрый торрент трекер в рунете!

Как скачивать  ·   Что такое торрент  ·   Рейтинг и ограничения

Пост 13-Ноя-2013 07:54 (спустя 4 часа)

Топик был перенесен из форума Мультфильмы (Трюм) в форум Новинки (HD|DVD|BD| TV|SAT|PDTV| - Rips)
ara1205
 
Показать сообщения:    
Ответить на тему

Текущее время: Сегодня 01:49

Часовой пояс: GMT + 4



Вы не можете начинать темы
Вы не можете отвечать на сообщения
Вы не можете редактировать свои сообщения
Вы не можете удалять свои сообщения
Вы не можете голосовать в опросах
Вы не можете прикреплять файлы к сообщениям
Вы не можете скачивать файлы

▼ Вниз