ML
     
  Уважаемый Гость!
Вы можете поддержать проект и зарегистрироваться у наших партнеров - онлайн-стратегия MyLands. При регистрации в игре Вы получите код, который сможете активировать после регистрации на pirat.ca и получить 1000 дублонов.

Ваш код:
500cb7bd8d2cec9a8aba647a87ce41c4b76f06bd
 
     

Секретная служба Санты: Шалуны против послушных / Prep and Landing: Naughty vs Nice (Кевин Дитерс, Стиви Вермерс / Kevin Deters, Stevie Wermers) [2011 г., мультфильм, короткометражка, фэнтези, комедия, семейный, HDTVRip 720p] (MVO)

Ответить на тему
 
Автор
Сообщение

Пост 02-Янв-2012 08:50

[Q] 

zyyx

--Секретная служба Санты: Шалуны против послушных
Prep and Landing: Naughty vs Nice
-- Год выпуска: 2011
Производство: США
Жанр: мультфильм, короткометражка, фэнтези, комедия, семейный
Продолжительность: 00:21:32
Перевод: Профессиональный (многоголосый) [Лицензия]
Оригинальный аудиопоток: Английский
Режиссер: Кевин Дитерс, Стиви Вермерс / Kevin Deters, Stevie Wermers
В ролях: Сара Чок, Дэйв Фоли, Дерек Ричардсон, Роб Риггл, Эмили Элин Линд
Описание: Новый короткометражный мультфильм от создателей "Секретной службы Санта Клауса". Что может быть сложнее, чем спасти грядущее Рождество?! Судьба уготовила отважным эльфам Уэйну и Лэнни новую миссию по спасению грядущего праздника... А поможет им в этом старый знакомый Уэйна - эльф-угольщик Ноэл. Приключения начинаются!
Источник/Качество: HDTVRip 720p | Сэмпл
Формат: MKV
Видео кодек: H.26x
Аудио кодек: AC3
Видео: 1280x720, 23.98fps, 3 477 Kbps
Аудио: 48.0 KHz, 6 ch, 384 Kbps | Русский
Аудио #2: 48.0 KHz, 6 ch, 384 Kbps | Английский
Субтитры: Russian
General
Complete name : E:\Prep.and.Landing.Naughty.vs.Nice.720p.HDTVRip.mkv
Format : Matroska
File size : 668 MiB
Duration : 21mn 32s
Overall bit rate : 4 331 Kbps
Encoded date : UTC 2011-12-31 14:05:17
Writing application : mkvmerge v5.1.0 ('And so it goes') built on Nov 28 2011 23:58:28
Writing library : libebml v1.2.3 + libmatroska v1.3.0
Video
ID : 1
Format : AVC
Format/Info : Advanced Video Codec
Format profile : [email protected]
Format settings, CABAC : Yes
Format settings, ReFrames : 9 frames
Muxing mode : Container [email protected]
Codec ID : V_MPEG4/ISO/AVC
Duration : 21mn 31s
Bit rate : 3 477 Kbps
Width : 1 280 pixels
Height : 720 pixels
Display aspect ratio : 16:9
Frame rate : 23.976 fps
Resolution : 24 bits
Colorimetry : 4:2:0
Scan type : Progressive
Bits/(Pixel*Frame) : 0.157
Stream size : 535 MiB (80%)
Writing library : x264 core 116 r2074 2641b9e
Encoding settings : cabac=1 / ref=9 / deblock=1:1:1 / analyse=0x3:0x113 / me=umh / subme=9 / psy=1 / psy_rd=0.40:0.00 / mixed_ref=1 / me_range=16 / chroma_me=1 / trellis=1 / 8x8dct=1 / cqm=0 / deadzone=21,11 / fast_pskip=1 / chroma_qp_offset=-2 / threads=3 / sliced_threads=0 / nr=0 / decimate=1 / interlaced=0 / bluray_compat=0 / constrained_intra=0 / bframes=7 / b_pyramid=2 / b_adapt=2 / b_bias=0 / direct=3 / weightb=1 / open_gop=0 / weightp=2 / keyint=250 / keyint_min=23 / scenecut=40 / intra_refresh=0 / rc_lookahead=50 / rc=crf / mbtree=1 / crf=15.0 / qcomp=0.60 / qpmin=0 / qpmax=69 / qpstep=4 / ip_ratio=1.40 / aq=1:0.60
Audio #1
ID : 2
Format : AC-3
Format/Info : Audio Coding 3
Codec ID : A_AC3
Duration : 21mn 32s
Bit rate mode : Constant
Bit rate : 384 Kbps
Channel(s) : 6 channels
Channel positions : Front: L C R, Surround: L R, LFE
Sampling rate : 48.0 KHz
Stream size : 59.2 MiB (9%)
Language : Russian
Audio #2
ID : 3
Format : AC-3
Format/Info : Audio Coding 3
Codec ID : A_AC3
Duration : 21mn 32s
Bit rate mode : Constant
Bit rate : 384 Kbps
Channel(s) : 6 channels
Channel positions : Front: L C R, Surround: L R, LFE
Sampling rate : 48.0 KHz
Stream size : 59.2 MiB (9%)
Text #1
ID : 4
Format : UTF-8
Codec ID : S_TEXT/UTF8
Codec ID/Info : UTF-8 Plain Text
Text #2
ID : 5
Format : ASS
Codec ID : S_TEXT/ASS
Codec ID/Info : Advanced Sub Station Alpha
Language : Russian



Download / Скачать

Хотите скачать бесплатно? Зарегистрируйтесь на сайте (ссылка на регистрацию). Pirat.ca - самый быстрый торрент трекер в рунете!

Как скачивать  ·   Что такое торрент  ·   Рейтинг и ограничения

seny83

Штурман

Пост 02-Янв-2012 19:48 (спустя 10 часов)

[Q] 

а AVI будет ?
[Профиль]  [ЛС] 

maksimbond

Корсар

2

Пост 12-Янв-2012 00:54 (спустя 9 дней)

[Q] 

поднимает настроение
[Профиль]  [ЛС] 

Колямба

Морской Волк

Пост 16-Янв-2012 01:17 (спустя 4 дня)

[Q] 

гляну
[Профиль]  [ЛС] 

trogvar_10

Корсар

38

Пост 06-Апр-2012 02:56 (спустя 2 месяца 21 день)

[Q] 

[Профиль]  [ЛС] 

Wolf111

57096

Пост 31-Июл-2012 11:21 (спустя 3 месяца 25 дней)

[Q] 

Поиогу с раздачей
[Профиль]  [ЛС] 
Показать сообщения:    
Ответить на тему

Текущее время: Сегодня 01:45

Часовой пояс: GMT + 4



Вы не можете начинать темы
Вы не можете отвечать на сообщения
Вы не можете редактировать свои сообщения
Вы не можете удалять свои сообщения
Вы не можете голосовать в опросах
Вы не можете прикреплять файлы к сообщениям
Вы не можете скачивать файлы

▼ Вниз