ML
     
  Уважаемый Гость!
Вы можете поддержать проект и зарегистрироваться у наших партнеров - онлайн-стратегия MyLands. При регистрации в игре Вы получите код, который сможете активировать после регистрации на pirat.ca и получить 1000 дублонов.

Ваш код:
c89b4b6523eaac3173e9a9c062ac1a19db575961
 
     

Джастин и рыцари доблести / Justin and the Knights of Valour (Мануэль Сисилия / Manuel Sicilia) [2013 г., мультфильм, приключения, DVDRip] Dub [Лицензия]

Ответить на тему
 
Автор
Сообщение

Пост 20-Ноя-2013 14:54

[Q] 

aleksey99

--Джастин и рыцари доблести / Justin and the Knights of Valour-- Производство: Испания / Aliwood Mediterráneo Producciones, Kandor Graphics, Ono, Out Of The Box Feature
Год выпуска: 2013 г.
Жанр: мультфильм, приключения
Продолжительность: 01:32:02--Мировая премьера: 12 сентября 2013
Российская премьера: 24 октября 2013, «Люксор»
Релиз на DVD: 19 ноября 2013, «Lizard Cinema Trade»
Релиз на Blu-Ray: 19 ноября 2013, «Lizard Cinema Trade»--Перевод: Профессиональный (полное дублирование)[Лицензия]--Режиссер: Мануэль Сисилия / Manuel Sicilia--В ролях: Фредди Хаймор, Сирша Ронан, Марк Стронг, Дэвид Уоллиамс, Антонио Бандерас, Альфред Молина, Джули Уолтерс, Оливия Уильямс, Чарльз Дэнс, Руперт Эверетт--Описание: Действие мультфильма разворачивается в магическом мире, о котором мечтает каждый ребёнок. Джастин мечтает стать рыцарем, но на его пути появляется много препятствий бюрократического характера. Даже отец Джастина против рыцарства и хочет, чтобы сын стал придворным служащим. Тогда мальчик, обуреваемый желанием стать настоящим доблестным Рыцарем, сбегает из дома в поисках приключений. По дороге он знакомится с прекрасной девушкой — Талией, вдохновляющей его на новые подвиги, и встречает мудрых рыцарей-наставников, которые обучают его рыцарскому мастерству. Но хватит ли Джастину полученных знаний для того, чтобы справиться с угрозой, которая нависла над его Королевством? Сумеет ли мальчик преодолеть все препятствия и достичь своей мечты?-- --Качество видео: DVDRip
Контейнер: AVI
Видео кодек: XviD
Аудио кодек: AC3
Видео: 720x304 (2.37:1), 25 fps, XviD build 50 ~1684 kbps avg, 0.31 bit/pixel
Аудио: 48 kHz, AC3 Dolby Digital, 3/2 (L,C,R,l,r) + LFE ch, ~448 kbps
Cубтитры: Отсутствуют
Общее
Полное имя : H:\Torrent2\JUSTIN.2013.XviD.DVDRip_[pirat.ca].avi
Формат : AVI
Формат/Информация : Audio Video Interleave
Размер файла : 1,38 Гбайт
Продолжительность : 1 ч. 32 м.
Общий поток : 2142 Кбит/сек
Программа кодирования : VirtualDubModRus 1.5.10.2 (build 2542/release)
Библиотека кодирования : VirtualDubMod build 2542/release
Видео
Идентификатор : 0
Формат : MPEG-4 Visual
Профиль формата : Advanced [email protected]
Параметр BVOP формата : 1
Параметр QPel формата : Нет
Параметр GMC формата : Без точки перехода
Параметр матрицы формата : Выборочная
Идентификатор кодека : XVID
Идентификатор кодека/Подсказка : XviD
Продолжительность : 1 ч. 32 м.
Битрейт : 1685 Кбит/сек
Ширина : 720 пикселей
Высота : 304 пикселя
Соотношение сторон : 2,35:1
Частота кадров : 25,000 кадров/сек
Цветовое пространство : YUV
Субдискретизация насыщенности : 4:2:0
Битовая глубина : 8 бит
Тип развёртки : Прогрессивная
Метод сжатия : С потерями
Бит/(Пиксели*Кадры) : 0.308
Размер потока : 1,08 Гбайт (79%)
Библиотека кодирования : XviD 1.2.1 (UTC 2008-12-04)
Аудио
Идентификатор : 1
Формат : AC-3
Формат/Информация : Audio Coding 3
Расширение режима : CM (complete main)
Параметр Endianness формата : Big
Идентификатор кодека : 2000
Продолжительность : 1 ч. 32 м.
Вид битрейта : Постоянный
Битрейт : 448 Кбит/сек
Каналы : 6 каналов
Расположение каналов : Front: L C R, Side: L R, LFE
Частота : 48,0 КГц
Битовая глубина : 16 бит
Метод сжатия : С потерями
Размер потока : 295 Мбайт (21%)
Выравнивание : Разделение по промежуткам
Продолжительность промежутка : 40 мс. (1,00 видеокадр)
Время предзагрузки промежутка : 500 мс.
Трейлер
Download / Скачать

Хотите скачать бесплатно? Зарегистрируйтесь на сайте (ссылка на регистрацию). Pirat.ca - самый быстрый торрент трекер в рунете!

Как скачивать  ·   Что такое торрент  ·   Рейтинг и ограничения

Jey1980

Морской Волк

Пост 20-Ноя-2013 17:51 (спустя 2 часа 56 минут)

[Q] 

Люди, кто смотрел напишите - как мульт? А то Производство: Испания немного смущает...
Автору - Спасибо!
[Профиль]  [ЛС] 

dragan123

Морской Волк

Пост 20-Ноя-2013 19:02 (спустя 1 час 10 минут)

[Q] 

спсибки заценим Лови бочку
[Профиль]  [ЛС] 

Пост 20-Ноя-2013 19:30 (спустя 27 минут)

Топик был перенесен из форума Мультфильмы (Трюм) в форум Новинки (HD|DVD|BD| TV|SAT|PDTV| - Rips)
erchine
 

KIRST

Корсар

Пост 20-Ноя-2013 19:39 (спустя 37 минут)

[Q] 

Спасибо!!! ПОСМОТРИМ.
[Профиль]  [ЛС] 

veter13

Корсар

Пост 20-Ноя-2013 20:06 (спустя 27 минут)

[Q] 

спасибо! Автору респект!!!
[Профиль]  [ЛС] 

kinstintin

Гроза морей

Пост 20-Ноя-2013 20:50 (спустя 43 минуты)

[Q] 

Спасибо!!!
автору - благодарность за труды!
[Профиль]  [ЛС] 

Jek@

Легенда

Пост 21-Ноя-2013 02:09 (спустя 5 часов)

[Q] 

Спасибо!!! .
[Профиль]  [ЛС] 

tango07

Корсар

Пост 21-Ноя-2013 11:35 (спустя 9 часов)

[Q] 

Спасибо за работу!
[Профиль]  [ЛС] 

lyxonchik

Лоцман

Пост 21-Ноя-2013 13:57 (спустя 2 часа 22 минуты)

[Q] 

Норм мульт. детям понравился
[Профиль]  [ЛС] 

Alex Yz

Гроза морей

Пост 24-Ноя-2013 00:06 (спустя 2 дня 10 часов)

[Q] 

Спасибо. Посмотрим сообщу как отнесутся дети. Спасибо!!! Вы лучшие!
[Профиль]  [ЛС] 

shalonina

Гроза морей

Пост 25-Ноя-2013 10:12 (спустя 1 день 10 часов)

[Q] 

спасибо. Раздающему респект!

_________________
[Профиль]  [ЛС] 

baltimor30

Морской Волк

Пост 26-Ноя-2013 20:16 (спустя 1 день 10 часов)

[Q] 

Думаю надо качать
[Профиль]  [ЛС] 

Sayf

Лоцман

Пост 29-Ноя-2013 02:49 (спустя 2 дня 6 часов)

[Q] 

Спасибо!) ay
[Профиль]  [ЛС] 

kinstintin

Гроза морей

Пост 30-Ноя-2013 18:16 (спустя 1 день 15 часов)

[Q] 

посмотрел, мое мнение - мультфильм так себе, одноразовый
раз посмотрел - и забыл
[Профиль]  [ЛС] 

vesna_7777

Корсар

Пост 28-Дек-2013 17:37 (спустя 27 дней)

[Q] 

На раз пойдет, бывает и хуже.
На форуме  [Профиль]  [ЛС] 

ScorpioKZ

Шкипер

Пост 17-Фев-2014 09:56 (спустя 1 месяц 19 дней)

[Q] 

коменты не однозначны, буду качать.
и да Автору респект!!!
[Профиль]  [ЛС] 

Zetvelkras

Шкипер

Пост 14-Мар-2014 11:26 (спустя 25 дней)

[Q] 

Спасибо, посмотрю оценю Автору респект!!!
[Профиль]  [ЛС] 

websaurus

Штурман

Пост 22-Апр-2014 12:27 (спустя 1 месяц 8 дней)

[Q] 

Отличный мультик, юмор на высоте.
[Профиль]  [ЛС] 
Показать сообщения:    
Ответить на тему

Текущее время: Сегодня 22:32

Часовой пояс: GMT + 4



Вы не можете начинать темы
Вы не можете отвечать на сообщения
Вы не можете редактировать свои сообщения
Вы не можете удалять свои сообщения
Вы не можете голосовать в опросах
Вы не можете прикреплять файлы к сообщениям
Вы не можете скачивать файлы

▼ Вниз