ML
     
  Уважаемый Гость!
Вы можете поддержать проект и зарегистрироваться у наших партнеров - онлайн-стратегия MyLands. При регистрации в игре Вы получите код, который сможете активировать после регистрации на pirat.ca и получить 1000 дублонов.

Ваш код:
a6d1ef7ff63e237add5a4c8b21d8aa937c5e9b4b
 
     

Джастин и рыцари доблести / Justin and the Knights of Valour (Мануэль Сисилия / Manuel Sicilia) [2013 г., мультфильм, приключения, DVDRip] Dub [Лицензия]

Ответить на тему
 
Автор
Сообщение

Пост 21-Ноя-2013 18:30

[Q] 

ara1205

-Джастин и рыцари доблести / Justin and the Knights of Valour-- Производство: Испания
Год выпуска: 2013 г.
Жанр: мультфильм, приключения
Продолжительность: 01:32:02
Перевод: Профессиональный (полное дублирование) [Лицензия]-Режиссер: Мануэль Сисилия / Manuel Sicilia-В ролях: Фредди Хаймор, Сирша Ронан, Марк Стронг, Дэвид Уоллиамс, Антонио Бандерас, Альфред Молина, Джули Уолтерс, Оливия Уильямс, Чарльз Дэнс, Руперт Эверетт-Описание: Действие мультфильма разворачивается в магическом мире, о котором мечтает каждый ребёнок. Джастин мечтает стать рыцарем, но на его пути появляется много препятствий бюрократического характера. Даже отец Джастина против рыцарства и хочет, чтобы сын стал придворным служащим. Тогда мальчик, обуреваемый желанием стать настоящим доблестным Рыцарем, сбегает из дома в поисках приключений. По дороге он знакомится с прекрасной девушкой — Талией, вдохновляющей его на новые подвиги, и встречает мудрых рыцарей-наставников, которые обучают его рыцарскому мастерству. Но хватит ли Джастину полученных знаний для того, чтобы справиться с угрозой, которая нависла над его Королевством? Сумеет ли мальчик преодолеть все препятствия и достичь своей мечты?- -Качество видео: DVDRip
Контейнер: AVI
Видео кодек: XviD
Аудио кодек: MP3
Видео: 688x288, 25 fps, 993 kbps avg, 0.20 bit/pixel
Аудио: 48 kHz, MP3, 2 ch, ~128 kbps
Cубтитры: отсутствуют-
Общее
Полное имя : C:\DVD5\Джастин и рыцари доблести\Djastin.i.rytsari.doblesti.2013.DVDRip.745Mb.[pirat.ca].avi
Формат : AVI
Формат/Информация : Audio Video Interleave
Размер файла : 744 Мбайт
Продолжительность : 1 ч. 32 м.
Общий поток : 1130 Кбит/сек
Название фильма : Djastin.i.rytsari.doblesti.2013.DVDRip.745Mb.[pirat.ca]
Программа кодирования : VirtualDubMod 1.5.10.2 (build 2540/release)
Правообладатель : pirat.ca
Видео
Идентификатор : 0
Формат : MPEG-4 Visual
Профиль формата : Advanced [email protected]
Параметр BVOP формата : 2
Параметр QPel формата : Нет
Параметр GMC формата : Без точки перехода
Параметр матрицы формата : Default (MPEG)
Идентификатор кодека : XVID
Идентификатор кодека/Подсказка : XviD
Продолжительность : 1 ч. 32 м.
Битрейт : 993 Кбит/сек
Ширина : 688 пикселей
Высота : 288 пикселей
Соотношение сторон : 2,40:1
Частота кадров : 25,000 кадров/сек
Цветовое пространство : YUV
Субдискретизация насыщенности : 4:2:0
Битовая глубина : 8 бит
Тип развёртки : Прогрессивная
Метод сжатия : С потерями
Бит/(Пиксели*Кадры) : 0.200
Размер потока : 653 Мбайт (88%)
Библиотека кодирования : XviD 1.2.1 (UTC 2008-12-04)
Аудио
Идентификатор : 1
Формат : MPEG Audio
Версия формата : Version 1
Профиль формата : Layer 3
Идентификатор кодека : 55
Идентификатор кодека/Подсказка : MP3
Продолжительность : 1 ч. 32 м.
Вид битрейта : Постоянный
Битрейт : 128 Кбит/сек
Каналы : 2 канала
Частота : 48,0 КГц
Метод сжатия : С потерями
Размер потока : 84,3 Мбайт (11%)
Выравнивание : Соединение по промежуткам
Продолжительность промежутка : 40 мс. (1,00 видеокадр)
Время предзагрузки промежутка : 504 мс.
Библиотека кодирования : LAMELAME_MAJOR_VERSI
-
-
-
Download / Скачать

Хотите скачать бесплатно? Зарегистрируйтесь на сайте (ссылка на регистрацию). Pirat.ca - самый быстрый торрент трекер в рунете!

Как скачивать  ·   Что такое торрент  ·   Рейтинг и ограничения

лесенок

Шкипер

Пост 21-Ноя-2013 22:03 (спустя 3 часа)

[Q] 

Спасибо!!! посмотрим[flash][/flash]
[Профиль]  [ЛС] 

Ambre

Корсар

Пост 22-Ноя-2013 09:16 (спустя 11 часов)

[Q] 

спасибо) Автору респект!!!
[Профиль]  [ЛС] 

platon18

Гроза морей

Пост 22-Ноя-2013 11:22 (спустя 2 часа 5 минут)

[Q] 

автору спасибо, глянул, мульт ничо так, но и особо не блещет, сценарий подобный был про викинга
[Профиль]  [ЛС] 

volkodav-10

Корсар

Пост 22-Ноя-2013 11:29 (спустя 7 минут)

[Q] 

Вроде нормуль.

_________________
Каждому своё.
[Профиль]  [ЛС] 

fishman

Корсар

Пост 22-Ноя-2013 19:10 (спустя 7 часов)

[Q] 

Спасибо!
Лови бочку

_________________
|___|___|___|___|___|___|___|__|__
__|__|__|_Биться головой_|___|___|
|___|___|___|__сюда!!___|___|__|__
__|___|___|___|___|___|___|__|__
[Профиль]  [ЛС] 

ara1205 ®

69729

Пост 24-Ноя-2013 12:32 (спустя 1 день 17 часов)

[Q] 

Посмотрел. Нормальный мульт для детворы.
[Профиль]  [ЛС] 

yulya230784

Морской Волк

927

Пост 03-Дек-2013 15:45 (спустя 9 дней)

[Q] 

Спасибо. Очень понравилось
[Профиль]  [ЛС] 
Показать сообщения:    
Ответить на тему

Текущее время: Сегодня 13:36

Часовой пояс: GMT + 4



Вы не можете начинать темы
Вы не можете отвечать на сообщения
Вы не можете редактировать свои сообщения
Вы не можете удалять свои сообщения
Вы не можете голосовать в опросах
Вы не можете прикреплять файлы к сообщениям
Вы не можете скачивать файлы

▼ Вниз