ML
     
  Уважаемый Гость!
Вы можете поддержать проект и зарегистрироваться у наших партнеров - онлайн-стратегия MyLands. При регистрации в игре Вы получите код, который сможете активировать после регистрации на pirat.ca и получить 1000 дублонов.

Ваш код:
5f4e94775bc0501caff7b254e79328d304c817d9
 
     

Железный человек и Халк: Союз героев / Iron Man & Hulk: Heroes United (Лео Райли / Leo Riley) [2013 г., мультфильм, фантастика, боевик, HDRip] Dub [Лицензия] + Original (Eng)

Ответить на тему
 
Автор
Сообщение

Пост 27-Ноя-2013 08:00

[Q] 

aleksey99

--Железный человек и Халк: Союз героев / Iron Man & Hulk: Heroes United- -Производство: США
Год выпуска: 2013 г.
Жанр: мультфильм, фантастика, боевик
Продолжительность: 01:11:44-Мировая премьера: 3 декабря 2013
Дата выхода DVD: 3 декабря 2013, «Уолт Дисней Компани СНГ»-Перевод: Профессиональный (полное дублирование)[Лицензия]
Оригинальный аудиопоток: английский-Режиссер: Лео Райли / Leo Riley--В ролях: Адриан Пасдар, Ди Брэдли Бейкер, Фред Татаскьор--Описание: Халк и Железный человек объединили свои невероятные силы во имя борьбы за спасение человечества, а в это время еще один сверхчеловек стал представлять угрозу для Халка, он телепортируется и постоянно получает улучшенную ДНК, что делает его почти неуязвимым. Только вдвоем можно сразить грозного врага.- -Качество видео: HDRip
Контейнер: AVI
Видео кодек: XviD
Аудио кодек: AC3
Видео: 720x400 (1.80:1), 23.976 fps, XviD build 50 ~1816 kbps avg, 0.26 bit/pixel
Аудио 1: 48 kHz, AC3 Dolby Digital, 3/2 (L,C,R,l,r) + LFE ch, ~448 kbps Dub
Аудио 2: 48 kHz, AC3 Dolby Digital, 3/2 (L,C,R,l,r) + LFE ch, ~448 kbps ENG
Cубтитры: Отсутствуют
Общее
Полное имя : H:\Torrent2\Iron.Man.And.Hulk-Heroes.United.2013.D.HDRip.1400MB_[pirat.ca].avi
Формат : AVI
Формат/Информация : Audio Video Interleave
Размер файла : 1,37 Гбайт
Продолжительность : 1 ч. 11 м.
Общий поток : 2727 Кбит/сек
Программа кодирования : VirtualDubMod 1.5.10.2 (build 2540/release)
Библиотека кодирования : VirtualDubMod build 2540/release
Видео
Идентификатор : 0
Формат : MPEG-4 Visual
Профиль формата : Advanced [email protected]
Параметр BVOP формата : 2
Параметр QPel формата : Нет
Параметр GMC формата : Без точки перехода
Параметр матрицы формата : Выборочная
Идентификатор кодека : XVID
Идентификатор кодека/Подсказка : XviD
Продолжительность : 1 ч. 11 м.
Битрейт : 1817 Кбит/сек
Ширина : 720 пикселей
Высота : 400 пикселей
Соотношение сторон : 16:9
Частота кадров : 23,976 кадра/сек
Цветовое пространство : YUV
Субдискретизация насыщенности : 4:2:0
Битовая глубина : 8 бит
Тип развёртки : Прогрессивная
Метод сжатия : С потерями
Бит/(Пиксели*Кадры) : 0.263
Размер потока : 932 Мбайт (67%)
Библиотека кодирования : XviD 1.2.1 (UTC 2008-12-04)
Аудио #1
Идентификатор : 1
Формат : AC-3
Формат/Информация : Audio Coding 3
Расширение режима : CM (complete main)
Параметр Endianness формата : Big
Идентификатор кодека : 2000
Продолжительность : 1 ч. 11 м.
Вид битрейта : Постоянный
Битрейт : 448 Кбит/сек
Каналы : 6 каналов
Расположение каналов : Front: L C R, Side: L R, LFE
Частота : 48,0 КГц
Битовая глубина : 16 бит
Метод сжатия : С потерями
Размер потока : 230 Мбайт (16%)
Выравнивание : Разделение по промежуткам
Продолжительность промежутка : 42 мс. (1,00 видеокадр)
Время предзагрузки промежутка : 500 мс.
Аудио #2
Идентификатор : 2
Формат : AC-3
Формат/Информация : Audio Coding 3
Расширение режима : CM (complete main)
Параметр Endianness формата : Big
Идентификатор кодека : 2000
Продолжительность : 1 ч. 11 м.
Вид битрейта : Постоянный
Битрейт : 448 Кбит/сек
Каналы : 6 каналов
Расположение каналов : Front: L C R, Side: L R, LFE
Частота : 48,0 КГц
Битовая глубина : 16 бит
Метод сжатия : С потерями
Размер потока : 230 Мбайт (16%)
Выравнивание : Разделение по промежуткам
Продолжительность промежутка : 42 мс. (1,00 видеокадр)
Время предзагрузки промежутка : 500 мс.
Трейлер
Download / Скачать

Хотите скачать бесплатно? Зарегистрируйтесь на сайте (ссылка на регистрацию). Pirat.ca - самый быстрый торрент трекер в рунете!

Как скачивать  ·   Что такое торрент  ·   Рейтинг и ограничения

LIFFORD

Лоцман

Пост 27-Ноя-2013 12:07 (спустя 4 часа)

[Q] 

озвучивают те же актеры что и фильм?
[Профиль]  [ЛС] 

Роман1412

Морской Волк

Пост 27-Ноя-2013 15:10 (спустя 3 часа)

[Q] 

кто смотрел, как мульт
[Профиль]  [ЛС] 

Женя1493

Морской Волк

Пост 27-Ноя-2013 15:12 (спустя 1 минута)

[Q] 

посмотреть можно Спасибо!!!
[Профиль]  [ЛС] 

femaxx

Корсар

Пост 15-Дек-2013 17:12 (спустя 18 дней)

[Q] 

каждый раз всё хуже и хуже
[Профиль]  [ЛС] 
Показать сообщения:    
Ответить на тему

Текущее время: Сегодня 15:36

Часовой пояс: GMT + 4



Вы не можете начинать темы
Вы не можете отвечать на сообщения
Вы не можете редактировать свои сообщения
Вы не можете удалять свои сообщения
Вы не можете голосовать в опросах
Вы не можете прикреплять файлы к сообщениям
Вы не можете скачивать файлы

▼ Вниз