ML
     
  Уважаемый Гость!
Вы можете поддержать проект и зарегистрироваться у наших партнеров - онлайн-стратегия MyLands. При регистрации в игре Вы получите код, который сможете активировать после регистрации на pirat.ca и получить 1000 дублонов.

Ваш код:
193c38d0130f05c24de871678ea3ac181461757d
 
     

Железный человек и Халк: Союз героев / Iron Man & Hulk: Heroes United (Лео Райли / Leo Riley) [2013 г., мультфильм, фантастика, боевик, HDRip] Dub [Лицензия]

Ответить на тему
 
Автор
Сообщение

Пост 27-Ноя-2013 16:12

[Q] 

ara1205

-Железный человек и Халк: Союз героев / Iron Man & Hulk: Heroes United-- Производство: США
Год выпуска: 2013 г.
Жанр: мультфильм, фантастика, боевик
Продолжительность: 01:11:44
Перевод: Профессиональный (полное дублирование) [Лицензия]-Режиссер: Лео Райли / Leo Riley-В ролях: Адриан Пасдар, Ди Брэдли Бейкер, Фред Татаскьор-Описание: Халк и Железный человек объединили свои невероятные силы во имя борьбы за спасение человечества, а в это время еще один сверхчеловек стал представлять угрозу для Халка, он телепортируется и постоянно получает улучшенную ДНК, что делает его почти неуязвимым. Только вдвоем можно сразить грозного врага.- -Качество видео: HDRip
Контейнер: AVI
Видео кодек: XviD
Аудио кодек: MP3
Видео: 720x400 (1.80:1), 23.976 fps, XviD build 50 ~1226 kbps avg, 0.177 bit/pixel
Аудио: 48 kHz, MPEG Layer 3, 2 ch, ~128.00 kbps avg
Cубтитры: отсутствуют-
Общее
Полное имя : C:\Users\Ромик\Pictures\Железный человек и Халк\Iron.Man.And.Hulk-Heroes.United.2013.D.HDRip.700MB.avi
Формат : AVI
Формат/Информация : Audio Video Interleave
Размер файла : 699 Мбайт
Продолжительность : 1 ч. 11 м.
Общий поток : 1363 Кбит/сек
Программа кодирования : VirtualDubMod 1.5.10.2 (build 2540/release)
Библиотека кодирования : VirtualDubMod build 2540/release
Видео
Идентификатор : 0
Формат : MPEG-4 Visual
Профиль формата : Advanced [email protected]
Параметр BVOP формата : 2
Параметр QPel формата : Нет
Параметр GMC формата : Без точки перехода
Параметр матрицы формата : Выборочная
Идентификатор кодека : XVID
Идентификатор кодека/Подсказка : XviD
Продолжительность : 1 ч. 11 м.
Битрейт : 1226 Кбит/сек
Ширина : 720 пикселей
Высота : 400 пикселей
Соотношение сторон : 16:9
Частота кадров : 23,976 кадра/сек
Цветовое пространство : YUV
Субдискретизация насыщенности : 4:2:0
Битовая глубина : 8 бит
Тип развёртки : Прогрессивная
Метод сжатия : С потерями
Бит/(Пиксели*Кадры) : 0.177
Размер потока : 629 Мбайт (90%)
Библиотека кодирования : XviD 1.2.1 (UTC 2008-12-04)
Аудио
Идентификатор : 1
Формат : MPEG Audio
Версия формата : Version 1
Профиль формата : Layer 3
Идентификатор кодека : 55
Идентификатор кодека/Подсказка : MP3
Продолжительность : 1 ч. 11 м.
Вид битрейта : Постоянный
Битрейт : 128 Кбит/сек
Каналы : 2 канала
Частота : 48,0 КГц
Метод сжатия : С потерями
Размер потока : 65,7 Мбайт (9%)
Выравнивание : Соединение по промежуткам
Продолжительность промежутка : 42 мс. (1,00 видеокадр)
Время предзагрузки промежутка : 504 мс.
Библиотека кодирования : LAME3.99r
Настройки программы : -m s -V 4 -q 2 -lowpass 17 -b 128
-
-
Download / Скачать

Хотите скачать бесплатно? Зарегистрируйтесь на сайте (ссылка на регистрацию). Pirat.ca - самый быстрый торрент трекер в рунете!

Как скачивать  ·   Что такое торрент  ·   Рейтинг и ограничения

Znoi

Флибустьер

1163

Пост 27-Ноя-2013 17:12 (спустя 59 минут)

[Q] 

Спасибо!!! Лови бочку .......
[Профиль]  [ЛС] 

Jek@

Легенда

Пост 28-Ноя-2013 11:51 (спустя 18 часов)

[Q] 

Спасибо!!! .
[Профиль]  [ЛС] 

Нордрассиль

Шкипер

Пост 29-Ноя-2013 02:30 (спустя 14 часов)

[Q] 

Я люблю мульты по комиксам, но это что за поделка? Графика на коленке состряпана, музыка, как полифония какая то, голова ток разболелась.
[Профиль]  [ЛС] 

Zetvelkras

Шкипер

Пост 16-Мар-2014 13:55 (спустя 3 месяца 17 дней)

[Q] 

Раздающему респект! посмотрю оценю
[Профиль]  [ЛС] 
Показать сообщения:    
Ответить на тему

Текущее время: Сегодня 18:02

Часовой пояс: GMT + 4



Вы не можете начинать темы
Вы не можете отвечать на сообщения
Вы не можете редактировать свои сообщения
Вы не можете удалять свои сообщения
Вы не можете голосовать в опросах
Вы не можете прикреплять файлы к сообщениям
Вы не можете скачивать файлы

▼ Вниз